  0
SECTION
  2
HEADER
  9
$ACADVER
  1
AC1006
  9
$INSBASE
 10
0.0
 20
0.0
 30
0.0
  9
$EXTMIN
 10
      -15.000000
 20
      -15.000000
  9
$EXTMAX
 10
       89.303444
 20
       26.718718
  9
$LIMMIN
 10
      -15.000000
 20
      -15.000000
  9
$LIMMAX
 10
       89.303444
 20
       26.718718
  9
$VIEWCTR
 10
       37.151722
 20
       37.151722
  9
$ORTHOMODE
 70
     0
  9
$ANGBASE
 50
0.0
  9
$ANGDIR
 70
     0
  9
$SPLINETYPE
 70
     6
  9
$SPLINESEGS
 70
     8
9
$DIMASZ
 40
        2.500000
9
$DIMEXE
 40
        0.500000
9
$DIMEXO
 40
        1.000000
9
$DIMTXT
 40
        2.500000
9
$DIMGAP
 40
        0.500000
9
$DIMTAD
 70
1
9
$DIMTIH
 70
0
9
$DIMTOH
 70
0
  0
ENDSEC
  0
SECTION
  2
TABLES
  0
TABLE
  2
LTYPE
 70
     5
  0
LTYPE
  2
CONTINUOUS
 70
    64
  3
SOLID LINE
 72
    65
 73
     0
 40
0.0
  0
LTYPE
  2
DASHED
 70
    64
  3
-- -- -- -- -- --
 72
    65
 73
     2
 40
  0.75  
 49
  0.50  
 49
 -0.25  
  0
LTYPE
  2
DOT
 70
    64
  3
....................
 72
    65
 73
     2
 40
  0.25  
 49
  0.02  
 49
 -0.23  
  0
LTYPE
  2
CENTER
 70
    64
  3
-- . -- . -- . -- .
 72
    65
 73
    4
 40
  2.00  
 49
  1.25  
 49
 -0.25  
 49
  0.25  
 49
 -0.25  
  0
LTYPE
  2
PHANTOM
 70
    64
  3
-- .. -- .. -- ..
 72
    65
 73
    6
 40
  2.50  
 49
  1.25  
 49
 -0.25  
 49
  0.25  
 49
 -0.25  
 49
  0.25  
 49
 -0.25  
  0
ENDTAB
  0
TABLE
  2
LAYER
 70
     4
  0
LAYER
  2
0
 70
    64
 62
     2
  6
CONTINUOUS
  0
LAYER
  2
1
 70
    64
 62
     3
  6
CONTINUOUS
  0
LAYER
  2
2
 70
    64
 62
     3
  6
CONTINUOUS
  0
LAYER
  2
3
 70
    64
 62
     3
  6
CONTINUOUS
  0
ENDTAB
  0
TABLE
  2
STYLE
 70
     2
  0
STYLE
  2
STANDARD
 70
    64
 40
0.0
 41
1.0
 50
0.0
 71
     0
 42
5.0
  3
ROMANS
  4
BIGFONT
  0
STYLE
  2
BIGFONT
 70
    64
 40
0.0
 41
1.0
 50
0.0
 71
     0
 42
5.0
  3
ROMANS
  4
BIGFONT
  0
ENDTAB
  0
TABLE
  2
VIEW
 70
     0
  0
ENDTAB
  0
TABLE
  2
UCS
 70
     0
  0
ENDTAB
  0
TABLE
  2
DWGMGR
 70
     0
  0
ENDTAB
  0
ENDSEC
  0
SECTION
  2
BLOCKS
  0
BLOCK
  8
0
  2
BLK0001
 70
    64
 10
        0.000000
 20
        0.000000
  0
TEXT
  8
0
 62
  5
 10
       -3.750000
 20
      -23.525990
 30
        0.000000
 40
        2.500000
  1
φ３０
 50
        0.000000
 41
        1.000000
 51
        0.000000
  7
BIGFONT
  0
LINE
  8
0
 62
  5
 10
      -15.000000
 20
       -1.000000
 30
        0.000000
 11
      -15.000000
 21
      -24.525990
 31
        0.000000
  0
LINE
  8
0
 62
  5
 10
       15.000000
 20
       -1.000000
 30
        0.000000
 11
       15.000000
 21
      -24.525990
 31
        0.000000
  0
LINE
  8
0
 62
  5
 10
      -12.500000
 20
      -23.371490
 30
        0.000000
 11
      -15.000000
 21
      -24.025990
 31
        0.000000
  0
LINE
  8
0
 62
  5
 10
      -15.000000
 20
      -24.025990
 30
        0.000000
 11
      -12.500000
 21
      -24.680489
 31
        0.000000
  0
LINE
  8
0
 62
  5
 10
       12.500000
 20
      -24.680489
 30
        0.000000
 11
       15.000000
 21
      -24.025990
 31
        0.000000
  0
LINE
  8
0
 62
  5
 10
       15.000000
 20
      -24.025990
 30
        0.000000
 11
       12.500000
 21
      -23.371490
 31
        0.000000
  0
LINE
  8
0
 62
  5
 10
      -15.000000
 20
      -24.025990
 30
        0.000000
 11
       15.000000
 21
      -24.025990
 31
        0.000000
  0
ENDBLK
  0
BLOCK
  8
0
  2
BLK0002
 70
    64
 10
        0.000000
 20
        0.000000
  0
TEXT
  8
0
 62
  5
 10
       51.277439
 20
      -23.525990
 30
        0.000000
 40
        2.500000
  1
３０
 50
        0.000000
 41
        1.000000
 51
        0.000000
  7
BIGFONT
  0
LINE
  8
0
 62
  5
 10
       38.777439
 20
      -15.350000
 30
        0.000000
 11
       38.777439
 21
      -24.525990
 31
        0.000000
  0
LINE
  8
0
 62
  5
 10
       68.777443
 20
      -15.400000
 30
        0.000000
 11
       68.777443
 21
      -24.525990
 31
        0.000000
  0
LINE
  8
0
 62
  5
 10
       41.277439
 20
      -23.371490
 30
        0.000000
 11
       38.777439
 21
      -24.025990
 31
        0.000000
  0
LINE
  8
0
 62
  5
 10
       38.777439
 20
      -24.025990
 30
        0.000000
 11
       41.277439
 21
      -24.680489
 31
        0.000000
  0
LINE
  8
0
 62
  5
 10
       66.277443
 20
      -24.680489
 30
        0.000000
 11
       68.777443
 21
      -24.025990
 31
        0.000000
  0
LINE
  8
0
 62
  5
 10
       68.777443
 20
      -24.025990
 30
        0.000000
 11
       66.277443
 21
      -23.371490
 31
        0.000000
  0
LINE
  8
0
 62
  5
 10
       38.777439
 20
      -24.025990
 30
        0.000000
 11
       68.777443
 21
      -24.025990
 31
        0.000000
  0
ENDBLK
  0
ENDSEC
  0
SECTION
  2
ENTITIES
  0
LINE
  8
1
 10
       -2.000000
 20
       19.500000
 30
        0.000000
 11
        2.000000
 21
       19.500000
 31
        0.000000
  0
LINE
  8
1
 10
        1.500000
 20
       20.000000
 30
        0.000000
 11
        2.000000
 21
       19.500000
 31
        0.000000
  0
LINE
  8
1
 10
        2.000000
 20
       16.000000
 30
        0.000000
 11
       -2.000000
 21
       16.000000
 31
        0.000000
  0
LINE
  8
1
 10
       -1.500000
 20
       20.000000
 30
        0.000000
 11
       -2.000000
 21
       19.500000
 31
        0.000000
  0
LINE
  8
1
 10
       -2.000000
 20
       19.500000
 30
        0.000000
 11
       -2.000000
 21
       16.000000
 31
        0.000000
  0
LINE
  8
1
 10
       -1.800000
 20
       16.000000
 30
        0.000000
 11
       -1.800000
 21
       19.500000
 31
        0.000000
  0
LINE
  8
1
 10
       -1.400000
 20
       16.000000
 30
        0.000000
 11
       -1.400000
 21
       19.500000
 31
        0.000000
  0
LINE
  8
1
 10
       -0.800000
 20
       16.000000
 30
        0.000000
 11
       -0.800000
 21
       19.500000
 31
        0.000000
  0
LINE
  8
1
 10
       -0.850000
 20
       14.975897
 30
        0.000000
 11
       -0.850000
 21
       16.000000
 31
        0.000000
  0
LINE
  8
1
 10
       -0.672000
 20
       14.984940
 30
        0.000000
 11
       -0.672000
 21
       16.000000
 31
        0.000000
  0
LINE
  8
1
 10
        0.850000
 20
       14.975897
 30
        0.000000
 11
        0.850000
 21
       16.000000
 31
        0.000000
  0
LINE
  8
1
 10
        0.672000
 20
       14.984940
 30
        0.000000
 11
        0.672000
 21
       16.000000
 31
        0.000000
  0
LINE
  8
1
 10
       61.527441
 20
       20.000000
 30
        0.000000
 11
       64.527441
 21
       20.000000
 31
        0.000000
  0
LINE
  8
1
 10
        7.851253
 20
       12.781151
 30
        0.000000
 11
        8.173620
 21
       13.362860
 31
        0.000000
  0
LINE
  8
1
 10
        6.675696
 20
       13.432613
 30
        0.000000
 11
        6.998063
 21
       14.014321
 31
        0.000000
  0
LINE
  8
1
 10
        6.515621
 20
       13.510984
 30
        0.000000
 11
        6.842371
 21
       14.100601
 31
        0.000000
  0
LINE
  8
1
 10
        8.002561
 20
       12.686963
 30
        0.000000
 11
        8.329311
 21
       13.276580
 31
        0.000000
  0
CIRCLE
  8
3
 10
        0.000000
 20
        0.000000
 30
        0.000000
 40
       14.700000
  0
CIRCLE
  8
3
 10
        0.000000
 20
        0.000000
 30
        0.000000
 40
       14.650000
  0
CIRCLE
  8
3
 10
        0.000000
 20
        0.000000
 30
        0.000000
 40
       15.000000
  0
LINE
  8
1
 10
        8.212709
 20
       17.914349
 30
        0.000000
 11
       10.836720
 21
       16.460195
 31
        0.000000
  0
LINE
  8
1
 10
        7.533014
 20
       17.719373
 30
        0.000000
 11
       11.031696
 21
       15.780500
 31
        0.000000
  0
LINE
  8
1
 10
       10.836720
 20
       16.460195
 30
        0.000000
 11
       11.031696
 21
       15.780500
 31
        0.000000
  0
LINE
  8
1
 10
        9.335182
 20
       12.719154
 30
        0.000000
 11
        5.836500
 21
       14.658027
 31
        0.000000
  0
LINE
  8
1
 10
       11.031696
 20
       15.780500
 30
        0.000000
 11
        9.335182
 21
       12.719154
 31
        0.000000
  0
LINE
  8
1
 10
        9.160248
 20
       12.816098
 30
        0.000000
 11
       10.856762
 21
       15.877444
 31
        0.000000
  0
LINE
  8
1
 10
        8.810380
 20
       13.009985
 30
        0.000000
 11
       10.506894
 21
       16.071331
 31
        0.000000
  0
LINE
  8
1
 10
        8.285577
 20
       13.300816
 30
        0.000000
 11
        9.982091
 21
       16.362162
 31
        0.000000
  0
LINE
  8
1
 10
        8.212709
 20
       17.914349
 30
        0.000000
 11
        7.533014
 21
       17.719373
 31
        0.000000
  0
LINE
  8
1
 10
        7.533014
 20
       17.719373
 30
        0.000000
 11
        5.836500
 21
       14.658027
 31
        0.000000
  0
LINE
  8
1
 10
        6.011435
 20
       14.561084
 30
        0.000000
 11
        7.707948
 21
       17.622430
 31
        0.000000
  0
LINE
  8
1
 10
        6.361303
 20
       14.367196
 30
        0.000000
 11
        8.057817
 21
       17.428542
 31
        0.000000
  0
LINE
  8
1
 10
        6.886105
 20
       14.076365
 30
        0.000000
 11
        8.582619
 21
       17.137711
 31
        0.000000
  0
LINE
  8
1
 10
        0.000000
 20
       15.700000
 30
        0.000000
 11
        0.000000
 21
       19.200000
 31
        0.000000
  0
CIRCLE
  8
2
 10
        0.000000
 20
        0.000000
 30
        0.000000
 40
       11.000000
  0
TEXT
  8
0
 10
       20.784325
 20
       25.551597
 30
        0.000000
 40
        2.000000
  1
ＩＶ－１Ａ０１０１
 50
        0.000000
 41
        1.000000
 51
        0.000000
  7
BIGFONT
  0
LINE
  8
1
 10
       39.077441
 20
       14.650000
 30
        0.000000
 11
       39.077441
 21
      -14.650000
 31
        0.000000
  0
LINE
  8
1
 10
       56.277441
 20
       13.225812
 30
        0.000000
 11
       56.277441
 21
      -14.700000
 31
        0.000000
  0
LINE
  8
1
 10
       53.277441
 20
      -14.650000
 30
        0.000000
 11
       53.277441
 21
       12.907583
 31
        0.000000
  0
LINE
  8
1
 10
       38.777441
 20
      -14.350000
 30
        0.000000
 11
       38.777441
 21
       14.350000
 31
        0.000000
  0
LINE
  8
1
 10
       47.777441
 20
      -14.700000
 30
        0.000000
 11
       47.777441
 21
       14.700000
 31
        0.000000
  0
LINE
  8
1
 10
       42.777441
 20
      -14.700000
 30
        0.000000
 11
       42.777441
 21
       14.700000
 31
        0.000000
  0
LINE
  8
1
 10
       42.777441
 20
       -4.800000
 30
        0.000000
 11
       47.777441
 21
       -4.800000
 31
        0.000000
  0
LINE
  8
1
 10
       42.777441
 20
       -6.300000
 30
        0.000000
 11
       47.777441
 21
       -6.300000
 31
        0.000000
  0
LINE
  8
1
 10
       42.777441
 20
       -7.800000
 30
        0.000000
 11
       47.777441
 21
       -7.800000
 31
        0.000000
  0
LINE
  8
1
 10
       42.777441
 20
       -9.700001
 30
        0.000000
 11
       47.777441
 21
       -9.700001
 31
        0.000000
  0
LINE
  8
1
 10
       42.777441
 20
      -10.700001
 30
        0.000000
 11
       47.777441
 21
      -10.700001
 31
        0.000000
  0
LINE
  8
1
 10
       42.777441
 20
      -11.700001
 30
        0.000000
 11
       47.777441
 21
      -11.700001
 31
        0.000000
  0
LINE
  8
1
 10
       42.777441
 20
      -12.700001
 30
        0.000000
 11
       47.777441
 21
      -12.700001
 31
        0.000000
  0
LINE
  8
1
 10
       42.777441
 20
      -13.700001
 30
        0.000000
 11
       47.777441
 21
      -13.700001
 31
        0.000000
  0
LINE
  8
1
 10
       42.777441
 20
      -14.700000
 30
        0.000000
 11
       47.777441
 21
      -14.700000
 31
        0.000000
  0
LINE
  8
1
 10
       47.477441
 20
      -15.000000
 30
        0.000000
 11
       43.077441
 21
      -15.000000
 31
        0.000000
  0
LINE
  8
1
 10
       39.077441
 20
      -14.650000
 30
        0.000000
 11
       42.777441
 21
      -14.650000
 31
        0.000000
  0
LINE
  8
1
 10
       38.777441
 20
      -14.350000
 30
        0.000000
 11
       39.077441
 21
      -14.650000
 31
        0.000000
  0
LINE
  8
1
 10
       42.777441
 20
      -14.700000
 30
        0.000000
 11
       43.077441
 21
      -15.000000
 31
        0.000000
  0
LINE
  8
1
 10
       47.777441
 20
      -14.650000
 30
        0.000000
 11
       52.777441
 21
      -14.650000
 31
        0.000000
  0
LINE
  8
1
 10
       47.477441
 20
      -15.000000
 30
        0.000000
 11
       47.777441
 21
      -14.700000
 31
        0.000000
  0
LINE
  8
1
 10
       55.777441
 20
      -13.500000
 30
        0.000000
 11
       56.277441
 21
      -13.500000
 31
        0.000000
  0
LINE
  8
1
 10
       53.277441
 20
      -14.650000
 30
        0.000000
 11
       55.777441
 21
      -14.650000
 31
        0.000000
  0
LINE
  8
1
 10
       52.777441
 20
      -13.500000
 30
        0.000000
 11
       53.277441
 21
      -13.500000
 31
        0.000000
  0
LINE
  8
1
 10
       55.777441
 20
      -14.650000
 30
        0.000000
 11
       55.777441
 21
       12.894123
 31
        0.000000
  0
LINE
  8
1
 10
       42.777441
 20
        8.700000
 30
        0.000000
 11
       47.777441
 21
        8.700000
 31
        0.000000
  0
LINE
  8
1
 10
       42.777441
 20
        7.200000
 30
        0.000000
 11
       47.777441
 21
        7.200000
 31
        0.000000
  0
LINE
  8
1
 10
       42.777441
 20
        5.700000
 30
        0.000000
 11
       47.777441
 21
        5.700000
 31
        0.000000
  0
LINE
  8
1
 10
       42.777441
 20
        4.200000
 30
        0.000000
 11
       47.777441
 21
        4.200000
 31
        0.000000
  0
LINE
  8
1
 10
       42.777441
 20
        2.700000
 30
        0.000000
 11
       47.777441
 21
        2.700000
 31
        0.000000
  0
LINE
  8
1
 10
       42.777441
 20
        1.200000
 30
        0.000000
 11
       47.777441
 21
        1.200000
 31
        0.000000
  0
LINE
  8
1
 10
       42.777441
 20
       -0.300000
 30
        0.000000
 11
       47.777441
 21
       -0.300000
 31
        0.000000
  0
LINE
  8
1
 10
       42.777441
 20
       -1.800000
 30
        0.000000
 11
       47.777441
 21
       -1.800000
 31
        0.000000
  0
LINE
  8
1
 10
       42.777441
 20
       -3.300000
 30
        0.000000
 11
       47.777441
 21
       -3.300000
 31
        0.000000
  0
LINE
  8
1
 10
       42.777441
 20
       14.299999
 30
        0.000000
 11
       47.777441
 21
       14.299999
 31
        0.000000
  0
LINE
  8
1
 10
       42.777441
 20
       13.299999
 30
        0.000000
 11
       47.777441
 21
       13.299999
 31
        0.000000
  0
LINE
  8
1
 10
       42.777441
 20
       12.299999
 30
        0.000000
 11
       47.777441
 21
       12.299999
 31
        0.000000
  0
LINE
  8
1
 10
       42.777441
 20
       11.299999
 30
        0.000000
 11
       47.777441
 21
       11.299999
 31
        0.000000
  0
LINE
  8
1
 10
       42.777441
 20
       10.299999
 30
        0.000000
 11
       47.777441
 21
       10.299999
 31
        0.000000
  0
LINE
  8
1
 10
       42.777441
 20
       14.650000
 30
        0.000000
 11
       47.777441
 21
       14.650000
 31
        0.000000
  0
LINE
  8
1
 10
       47.477441
 20
       15.000000
 30
        0.000000
 11
       43.077441
 21
       15.000000
 31
        0.000000
  0
LINE
  8
1
 10
       39.077441
 20
       14.650000
 30
        0.000000
 11
       42.777441
 21
       14.650000
 31
        0.000000
  0
LINE
  8
1
 10
       39.077441
 20
       14.650000
 30
        0.000000
 11
       38.777441
 21
       14.350000
 31
        0.000000
  0
LINE
  8
1
 10
       43.077441
 20
       15.000000
 30
        0.000000
 11
       42.777441
 21
       14.700000
 31
        0.000000
  0
LINE
  8
1
 10
       52.527441
 20
       14.650000
 30
        0.000000
 11
       47.777441
 21
       14.650000
 31
        0.000000
  0
LINE
  8
1
 10
       47.477441
 20
       15.000000
 30
        0.000000
 11
       47.777441
 21
       14.700000
 31
        0.000000
  0
LINE
  8
1
 10
       52.777441
 20
       13.225812
 30
        0.000000
 11
       52.777441
 21
      -14.650000
 31
        0.000000
  0
LINE
  8
1
 10
       74.977441
 20
        9.500000
 30
        0.000000
 11
       74.977441
 21
       -9.500000
 31
        0.000000
  0
LINE
  8
1
 10
       72.277441
 20
       12.700000
 30
        0.000000
 11
       72.277441
 21
      -12.700000
 31
        0.000000
  0
LINE
  8
1
 10
       68.477441
 20
       14.700000
 30
        0.000000
 11
       68.477441
 21
      -14.700000
 31
        0.000000
  0
LINE
  8
1
 10
       75.277441
 20
       -9.200000
 30
        0.000000
 11
       75.277441
 21
        9.200000
 31
        0.000000
  0
LINE
  8
1
 10
       72.777441
 20
      -12.200000
 30
        0.000000
 11
       72.777441
 21
       12.200000
 31
        0.000000
  0
LINE
  8
1
 10
       69.777441
 20
      -12.700000
 30
        0.000000
 11
       69.777441
 21
       12.700000
 31
        0.000000
  0
LINE
  8
1
 10
       68.777441
 20
      -14.400000
 30
        0.000000
 11
       68.777441
 21
       14.400000
 31
        0.000000
  0
LINE
  8
1
 10
       65.277441
 20
      -14.700000
 30
        0.000000
 11
       65.277441
 21
       14.700000
 31
        0.000000
  0
LINE
  8
1
 10
       60.777441
 20
      -14.700000
 30
        0.000000
 11
       60.777441
 21
       14.700000
 31
        0.000000
  0
LINE
  8
1
 10
       68.477441
 20
      -14.700000
 30
        0.000000
 11
       65.277441
 21
      -14.700000
 31
        0.000000
  0
LINE
  8
1
 10
       61.077441
 20
      -15.000000
 30
        0.000000
 11
       64.977441
 21
      -15.000000
 31
        0.000000
  0
LINE
  8
1
 10
       60.777441
 20
      -14.700000
 30
        0.000000
 11
       61.077441
 21
      -15.000000
 31
        0.000000
  0
LINE
  8
1
 10
       65.277441
 20
      -14.700000
 30
        0.000000
 11
       64.977441
 21
      -15.000000
 31
        0.000000
  0
LINE
  8
1
 10
       68.777441
 20
      -14.400000
 30
        0.000000
 11
       68.477441
 21
      -14.700000
 31
        0.000000
  0
LINE
  8
1
 10
       74.977441
 20
       -9.500000
 30
        0.000000
 11
       72.777441
 21
       -9.500000
 31
        0.000000
  0
LINE
  8
1
 10
       75.277441
 20
       -9.200000
 30
        0.000000
 11
       74.977441
 21
       -9.500000
 31
        0.000000
  0
LINE
  8
1
 10
       68.477441
 20
       14.700000
 30
        0.000000
 11
       65.277441
 21
       14.700000
 31
        0.000000
  0
LINE
  8
1
 10
       64.977441
 20
       15.000000
 30
        0.000000
 11
       61.077441
 21
       15.000000
 31
        0.000000
  0
LINE
  8
1
 10
       61.077441
 20
       15.000000
 30
        0.000000
 11
       60.777441
 21
       14.700000
 31
        0.000000
  0
LINE
  8
1
 10
       64.977441
 20
       15.000000
 30
        0.000000
 11
       65.277441
 21
       14.700000
 31
        0.000000
  0
LINE
  8
1
 10
       69.777441
 20
       12.700000
 30
        0.000000
 11
       72.277441
 21
       12.700000
 31
        0.000000
  0
LINE
  8
1
 10
       68.477441
 20
       14.700000
 30
        0.000000
 11
       68.777441
 21
       14.400000
 31
        0.000000
  0
CIRCLE
  8
0
 62
  3
 10
        0.000000
 20
        0.000000
 30
        0.000000
 40
       13.500000
  0
CIRCLE
  8
0
 62
  3
 10
        0.000000
 20
        0.000000
 30
        0.000000
 40
       13.250000
  0
LINE
  8
1
 10
       74.977441
 20
        9.500000
 30
        0.000000
 11
       72.777441
 21
        9.500000
 31
        0.000000
  0
LINE
  8
1
 10
       74.977441
 20
        9.500000
 30
        0.000000
 11
       75.277441
 21
        9.200000
 31
        0.000000
  0
LINE
  8
1
 10
       53.277441
 20
        0.000000
 30
        0.000000
 11
       55.777441
 21
        0.000000
 31
        0.000000
  0
LINE
  8
1
 10
       72.677441
 20
       12.300000
 30
        0.000000
 11
       69.777441
 21
       12.300000
 31
        0.000000
  0
LINE
  8
1
 10
       69.777441
 20
       12.200000
 30
        0.000000
 11
       68.777441
 21
       12.200000
 31
        0.000000
  0
LINE
  8
1
 10
       72.277441
 20
       12.700000
 30
        0.000000
 11
       72.777441
 21
       12.200000
 31
        0.000000
  0
LINE
  8
1
 10
       72.677441
 20
      -12.300000
 30
        0.000000
 11
       69.777441
 21
      -12.300000
 31
        0.000000
  0
LINE
  8
1
 10
       69.777441
 20
      -12.700000
 30
        0.000000
 11
       72.277441
 21
      -12.700000
 31
        0.000000
  0
LINE
  8
1
 10
       69.777441
 20
      -12.200000
 30
        0.000000
 11
       68.777441
 21
      -12.200000
 31
        0.000000
  0
LINE
  8
1
 10
       72.277441
 20
      -12.700000
 30
        0.000000
 11
       72.777441
 21
      -12.200000
 31
        0.000000
  0
LINE
  8
1
 10
       52.804027
 20
       17.317508
 30
        0.000000
 11
       52.784418
 21
       17.253610
 31
        0.000000
  0
LINE
  8
1
 10
       56.270464
 20
       17.253610
 30
        0.000000
 11
       56.250854
 21
       17.317508
 31
        0.000000
  0
LINE
  8
1
 10
       54.874737
 20
       12.702464
 30
        0.000000
 11
       55.043629
 21
       12.721140
 31
        0.000000
  0
LINE
  8
1
 10
       54.885533
 20
       15.703425
 30
        0.000000
 11
       55.062549
 21
       15.723729
 31
        0.000000
  0
LINE
  8
1
 10
       54.831325
 20
       16.448666
 30
        0.000000
 11
       55.117939
 21
       16.481515
 31
        0.000000
  0
LINE
  8
1
 10
       52.892216
 20
       13.110733
 30
        0.000000
 11
       52.995352
 21
       13.044484
 31
        0.000000
  0
LINE
  8
1
 10
       52.851962
 20
       16.141202
 30
        0.000000
 11
       52.960671
 21
       16.065719
 31
        0.000000
  0
LINE
  8
1
 10
       52.882979
 20
       16.930757
 30
        0.000000
 11
       52.944144
 21
       16.867932
 31
        0.000000
  0
LINE
  8
1
 10
       52.727441
 20
       13.251382
 30
        0.000000
 11
       52.727441
 21
       16.251382
 31
        0.000000
  0
LINE
  8
1
 10
       52.527441
 20
       16.687272
 30
        0.000000
 11
       52.527441
 21
       13.687272
 31
        0.000000
  0
LINE
  8
1
 10
       52.795390
 20
       13.187272
 30
        0.000000
 11
       52.892216
 21
       13.110733
 31
        0.000000
  0
LINE
  8
1
 10
       52.717206
 20
       13.264352
 30
        0.000000
 11
       52.795390
 21
       13.187272
 31
        0.000000
  0
LINE
  8
1
 10
       52.648055
 20
       13.345252
 30
        0.000000
 11
       52.717206
 21
       13.264352
 31
        0.000000
  0
LINE
  8
1
 10
       52.596799
 20
       13.419089
 30
        0.000000
 11
       52.648055
 21
       13.345252
 31
        0.000000
  0
LINE
  8
1
 10
       52.557825
 20
       13.513624
 30
        0.000000
 11
       52.596799
 21
       13.419089
 31
        0.000000
  0
LINE
  8
1
 10
       52.535297
 20
       13.622582
 30
        0.000000
 11
       52.557825
 21
       13.513624
 31
        0.000000
  0
LINE
  8
1
 10
       52.527441
 20
       13.687272
 30
        0.000000
 11
       52.535297
 21
       13.622582
 31
        0.000000
  0
LINE
  8
1
 10
       52.763118
 20
       16.216225
 30
        0.000000
 11
       52.851962
 21
       16.141202
 31
        0.000000
  0
LINE
  8
1
 10
       52.683066
 20
       16.300529
 30
        0.000000
 11
       52.763118
 21
       16.216225
 31
        0.000000
  0
LINE
  8
1
 10
       52.622565
 20
       16.382721
 30
        0.000000
 11
       52.683066
 21
       16.300529
 31
        0.000000
  0
LINE
  8
1
 10
       52.574142
 20
       16.472432
 30
        0.000000
 11
       52.622565
 21
       16.382721
 31
        0.000000
  0
LINE
  8
1
 10
       52.543486
 20
       16.559718
 30
        0.000000
 11
       52.574142
 21
       16.472432
 31
        0.000000
  0
LINE
  8
1
 10
       52.528734
 20
       16.651321
 30
        0.000000
 11
       52.543486
 21
       16.559718
 31
        0.000000
  0
LINE
  8
1
 10
       52.531643
 20
       16.743153
 30
        0.000000
 11
       52.528734
 21
       16.651321
 31
        0.000000
  0
LINE
  8
1
 10
       52.548316
 20
       16.831379
 30
        0.000000
 11
       52.531643
 21
       16.743153
 31
        0.000000
  0
LINE
  8
1
 10
       52.579068
 20
       16.918316
 30
        0.000000
 11
       52.548316
 21
       16.831379
 31
        0.000000
  0
LINE
  8
1
 10
       52.632254
 20
       17.006751
 30
        0.000000
 11
       52.579068
 21
       16.918316
 31
        0.000000
  0
LINE
  8
1
 10
       52.719592
 20
       17.111356
 30
        0.000000
 11
       52.632254
 21
       17.006751
 31
        0.000000
  0
LINE
  8
1
 10
       52.777816
 20
       17.171734
 30
        0.000000
 11
       52.719592
 21
       17.111356
 31
        0.000000
  0
LINE
  8
1
 10
       52.838470
 20
       16.990796
 30
        0.000000
 11
       52.882979
 21
       16.930757
 31
        0.000000
  0
LINE
  8
1
 10
       52.804027
 20
       17.057036
 30
        0.000000
 11
       52.838470
 21
       16.990796
 31
        0.000000
  0
LINE
  8
1
 10
       52.784418
 20
       17.120934
 30
        0.000000
 11
       52.804027
 21
       17.057036
 31
        0.000000
  0
LINE
  8
1
 10
       52.777441
 20
       17.187272
 30
        0.000000
 11
       52.784418
 21
       17.120934
 31
        0.000000
  0
LINE
  8
1
 10
       52.784418
 20
       17.253610
 30
        0.000000
 11
       52.777441
 21
       17.187272
 31
        0.000000
  0
LINE
  8
1
 10
       54.527441
 20
       12.687272
 30
        0.000000
 11
       54.527441
 21
       15.687272
 31
        0.000000
  0
LINE
  8
1
 10
       53.127441
 20
       12.973129
 30
        0.000000
 11
       53.127441
 21
       15.973129
 31
        0.000000
  0
LINE
  8
1
 10
       53.727441
 20
       12.770757
 30
        0.000000
 11
       53.727441
 21
       15.770757
 31
        0.000000
  0
LINE
  8
1
 10
       53.843400
 20
       12.747579
 30
        0.000000
 11
       54.011252
 21
       12.721140
 31
        0.000000
  0
LINE
  8
1
 10
       53.684489
 20
       12.780445
 30
        0.000000
 11
       53.843400
 21
       12.747579
 31
        0.000000
  0
LINE
  8
1
 10
       53.527441
 20
       12.821247
 30
        0.000000
 11
       53.684489
 21
       12.780445
 31
        0.000000
  0
LINE
  8
1
 10
       53.383199
 20
       12.867018
 30
        0.000000
 11
       53.527441
 21
       12.821247
 31
        0.000000
  0
LINE
  8
1
 10
       53.241866
 20
       12.921228
 30
        0.000000
 11
       53.383199
 21
       12.867018
 31
        0.000000
  0
LINE
  8
1
 10
       53.116446
 20
       12.978773
 30
        0.000000
 11
       53.241866
 21
       12.921228
 31
        0.000000
  0
LINE
  8
1
 10
       52.995352
 20
       13.044484
 30
        0.000000
 11
       53.116446
 21
       12.978773
 31
        0.000000
  0
LINE
  8
1
 10
       54.701256
 20
       12.691052
 30
        0.000000
 11
       54.874737
 21
       12.702464
 31
        0.000000
  0
LINE
  8
1
 10
       54.527441
 20
       12.687272
 30
        0.000000
 11
       54.701256
 21
       12.691052
 31
        0.000000
  0
LINE
  8
1
 10
       54.353625
 20
       12.691052
 30
        0.000000
 11
       54.527441
 21
       12.687272
 31
        0.000000
  0
LINE
  8
1
 10
       54.180144
 20
       12.702464
 30
        0.000000
 11
       54.353625
 21
       12.691052
 31
        0.000000
  0
LINE
  8
1
 10
       54.011252
 20
       12.721140
 30
        0.000000
 11
       54.180144
 21
       12.702464
 31
        0.000000
  0
LINE
  8
1
 10
       53.822844
 20
       15.751376
 30
        0.000000
 11
       53.992333
 21
       15.723729
 31
        0.000000
  0
LINE
  8
1
 10
       53.936942
 20
       16.481515
 30
        0.000000
 11
       54.223556
 21
       16.448666
 31
        0.000000
  0
LINE
  8
1
 10
       53.654948
 20
       15.787445
 30
        0.000000
 11
       53.822844
 21
       15.751376
 31
        0.000000
  0
LINE
  8
1
 10
       53.499126
 20
       15.829565
 30
        0.000000
 11
       53.654948
 21
       15.787445
 31
        0.000000
  0
LINE
  8
1
 10
       53.345935
 20
       15.880420
 30
        0.000000
 11
       53.499126
 21
       15.829565
 31
        0.000000
  0
LINE
  8
1
 10
       53.208622
 20
       15.935464
 30
        0.000000
 11
       53.345935
 21
       15.880420
 31
        0.000000
  0
LINE
  8
1
 10
       53.075340
 20
       15.999631
 30
        0.000000
 11
       53.208622
 21
       15.935464
 31
        0.000000
  0
LINE
  8
1
 10
       52.960671
 20
       16.065719
 30
        0.000000
 11
       53.075340
 21
       15.999631
 31
        0.000000
  0
LINE
  8
1
 10
       53.652441
 20
       16.537753
 30
        0.000000
 11
       53.936942
 21
       16.481515
 31
        0.000000
  0
LINE
  8
1
 10
       53.316453
 20
       16.643377
 30
        0.000000
 11
       53.652441
 21
       16.537753
 31
        0.000000
  0
LINE
  8
1
 10
       53.011896
 20
       16.812272
 30
        0.000000
 11
       53.316453
 21
       16.643377
 31
        0.000000
  0
LINE
  8
1
 10
       52.944144
 20
       16.867932
 30
        0.000000
 11
       53.011896
 21
       16.812272
 31
        0.000000
  0
LINE
  8
1
 10
       54.707765
 20
       15.691345
 30
        0.000000
 11
       54.885533
 21
       15.703425
 31
        0.000000
  0
LINE
  8
1
 10
       54.527441
 20
       15.687267
 30
        0.000000
 11
       54.707765
 21
       15.691345
 31
        0.000000
  0
LINE
  8
1
 10
       54.347117
 20
       15.691345
 30
        0.000000
 11
       54.527441
 21
       15.687267
 31
        0.000000
  0
LINE
  8
1
 10
       54.169349
 20
       15.703425
 30
        0.000000
 11
       54.347117
 21
       15.691345
 31
        0.000000
  0
LINE
  8
1
 10
       53.992333
 20
       15.723729
 30
        0.000000
 11
       54.169349
 21
       15.703425
 31
        0.000000
  0
LINE
  8
1
 10
       54.679569
 20
       16.440096
 30
        0.000000
 11
       54.831325
 21
       16.448666
 31
        0.000000
  0
LINE
  8
1
 10
       54.527441
 20
       16.437272
 30
        0.000000
 11
       54.679569
 21
       16.440096
 31
        0.000000
  0
LINE
  8
1
 10
       54.375312
 20
       16.440096
 30
        0.000000
 11
       54.527441
 21
       16.437272
 31
        0.000000
  0
LINE
  8
1
 10
       54.223556
 20
       16.448666
 30
        0.000000
 11
       54.375312
 21
       16.440096
 31
        0.000000
  0
LINE
  8
1
 10
       55.327441
 20
       12.770757
 30
        0.000000
 11
       55.327441
 21
       15.770757
 31
        0.000000
  0
LINE
  8
1
 10
       55.927441
 20
       12.973129
 30
        0.000000
 11
       55.927441
 21
       15.973129
 31
        0.000000
  0
LINE
  8
1
 10
       56.327441
 20
       13.251382
 30
        0.000000
 11
       56.327441
 21
       16.251382
 31
        0.000000
  0
LINE
  8
1
 10
       56.527441
 20
       16.687272
 30
        0.000000
 11
       56.527441
 21
       13.687272
 31
        0.000000
  0
LINE
  8
1
 10
       55.938435
 20
       12.978773
 30
        0.000000
 11
       56.059530
 21
       13.044484
 31
        0.000000
  0
LINE
  8
1
 10
       55.813016
 20
       12.921228
 30
        0.000000
 11
       55.938435
 21
       12.978773
 31
        0.000000
  0
LINE
  8
1
 10
       55.671683
 20
       12.867018
 30
        0.000000
 11
       55.813016
 21
       12.921228
 31
        0.000000
  0
LINE
  8
1
 10
       55.527441
 20
       12.821247
 30
        0.000000
 11
       55.671683
 21
       12.867018
 31
        0.000000
  0
LINE
  8
1
 10
       55.370392
 20
       12.780445
 30
        0.000000
 11
       55.527441
 21
       12.821247
 31
        0.000000
  0
LINE
  8
1
 10
       55.211481
 20
       12.747579
 30
        0.000000
 11
       55.370392
 21
       12.780445
 31
        0.000000
  0
LINE
  8
1
 10
       55.043629
 20
       12.721140
 30
        0.000000
 11
       55.211481
 21
       12.747579
 31
        0.000000
  0
LINE
  8
1
 10
       56.519584
 20
       13.622582
 30
        0.000000
 11
       56.527441
 21
       13.687272
 31
        0.000000
  0
LINE
  8
1
 10
       56.497056
 20
       13.513624
 30
        0.000000
 11
       56.519584
 21
       13.622582
 31
        0.000000
  0
LINE
  8
1
 10
       56.458082
 20
       13.419089
 30
        0.000000
 11
       56.497056
 21
       13.513624
 31
        0.000000
  0
LINE
  8
1
 10
       56.406826
 20
       13.345252
 30
        0.000000
 11
       56.458082
 21
       13.419089
 31
        0.000000
  0
LINE
  8
1
 10
       56.337675
 20
       13.264352
 30
        0.000000
 11
       56.406826
 21
       13.345252
 31
        0.000000
  0
LINE
  8
1
 10
       56.259492
 20
       13.187272
 30
        0.000000
 11
       56.337675
 21
       13.264352
 31
        0.000000
  0
LINE
  8
1
 10
       56.162665
 20
       13.110733
 30
        0.000000
 11
       56.259492
 21
       13.187272
 31
        0.000000
  0
LINE
  8
1
 10
       56.059530
 20
       13.044484
 30
        0.000000
 11
       56.162665
 21
       13.110733
 31
        0.000000
  0
LINE
  8
1
 10
       55.979542
 20
       15.999631
 30
        0.000000
 11
       56.094211
 21
       16.065719
 31
        0.000000
  0
LINE
  8
1
 10
       55.738428
 20
       16.643377
 30
        0.000000
 11
       56.042985
 21
       16.812272
 31
        0.000000
  0
LINE
  8
1
 10
       55.846259
 20
       15.935464
 30
        0.000000
 11
       55.979542
 21
       15.999631
 31
        0.000000
  0
LINE
  8
1
 10
       55.708947
 20
       15.880420
 30
        0.000000
 11
       55.846259
 21
       15.935464
 31
        0.000000
  0
LINE
  8
1
 10
       55.555755
 20
       15.829565
 30
        0.000000
 11
       55.708947
 21
       15.880420
 31
        0.000000
  0
LINE
  8
1
 10
       55.399933
 20
       15.787445
 30
        0.000000
 11
       55.555755
 21
       15.829565
 31
        0.000000
  0
LINE
  8
1
 10
       55.232038
 20
       15.751376
 30
        0.000000
 11
       55.399933
 21
       15.787445
 31
        0.000000
  0
LINE
  8
1
 10
       55.062549
 20
       15.723729
 30
        0.000000
 11
       55.232038
 21
       15.751376
 31
        0.000000
  0
LINE
  8
1
 10
       55.402441
 20
       16.537753
 30
        0.000000
 11
       55.738428
 21
       16.643377
 31
        0.000000
  0
LINE
  8
1
 10
       55.117939
 20
       16.481515
 30
        0.000000
 11
       55.402441
 21
       16.537753
 31
        0.000000
  0
LINE
  8
1
 10
       56.335290
 20
       17.111356
 30
        0.000000
 11
       56.277065
 21
       17.171734
 31
        0.000000
  0
LINE
  8
1
 10
       56.422628
 20
       17.006751
 30
        0.000000
 11
       56.335290
 21
       17.111356
 31
        0.000000
  0
LINE
  8
1
 10
       56.475814
 20
       16.918316
 30
        0.000000
 11
       56.422628
 21
       17.006751
 31
        0.000000
  0
LINE
  8
1
 10
       56.506565
 20
       16.831379
 30
        0.000000
 11
       56.475814
 21
       16.918316
 31
        0.000000
  0
LINE
  8
1
 10
       56.523238
 20
       16.743153
 30
        0.000000
 11
       56.506565
 21
       16.831379
 31
        0.000000
  0
LINE
  8
1
 10
       56.526148
 20
       16.651321
 30
        0.000000
 11
       56.523238
 21
       16.743153
 31
        0.000000
  0
LINE
  8
1
 10
       56.511395
 20
       16.559718
 30
        0.000000
 11
       56.526148
 21
       16.651321
 31
        0.000000
  0
LINE
  8
1
 10
       56.480739
 20
       16.472432
 30
        0.000000
 11
       56.511395
 21
       16.559718
 31
        0.000000
  0
LINE
  8
1
 10
       56.432316
 20
       16.382721
 30
        0.000000
 11
       56.480739
 21
       16.472432
 31
        0.000000
  0
LINE
  8
1
 10
       56.371816
 20
       16.300529
 30
        0.000000
 11
       56.432316
 21
       16.382721
 31
        0.000000
  0
LINE
  8
1
 10
       56.291764
 20
       16.216225
 30
        0.000000
 11
       56.371816
 21
       16.300529
 31
        0.000000
  0
LINE
  8
1
 10
       56.202919
 20
       16.141202
 30
        0.000000
 11
       56.291764
 21
       16.216225
 31
        0.000000
  0
LINE
  8
1
 10
       56.094211
 20
       16.065719
 30
        0.000000
 11
       56.202919
 21
       16.141202
 31
        0.000000
  0
LINE
  8
1
 10
       56.270464
 20
       17.120934
 30
        0.000000
 11
       56.277441
 21
       17.187272
 31
        0.000000
  0
LINE
  8
1
 10
       56.250854
 20
       17.057036
 30
        0.000000
 11
       56.270464
 21
       17.120934
 31
        0.000000
  0
LINE
  8
1
 10
       56.216412
 20
       16.990796
 30
        0.000000
 11
       56.250854
 21
       17.057036
 31
        0.000000
  0
LINE
  8
1
 10
       56.171903
 20
       16.930757
 30
        0.000000
 11
       56.216412
 21
       16.990796
 31
        0.000000
  0
LINE
  8
1
 10
       56.110738
 20
       16.867932
 30
        0.000000
 11
       56.171903
 21
       16.930757
 31
        0.000000
  0
LINE
  8
1
 10
       56.042985
 20
       16.812272
 30
        0.000000
 11
       56.110738
 21
       16.867932
 31
        0.000000
  0
LINE
  8
1
 10
       56.277441
 20
       17.187272
 30
        0.000000
 11
       56.270464
 21
       17.253610
 31
        0.000000
  0
LINE
  8
1
 10
       55.117939
 20
       17.893029
 30
        0.000000
 11
       54.831325
 21
       17.925878
 31
        0.000000
  0
LINE
  8
1
 10
       52.944144
 20
       17.506612
 30
        0.000000
 11
       52.882979
 21
       17.443787
 31
        0.000000
  0
LINE
  8
1
 10
       52.838470
 20
       17.383748
 30
        0.000000
 11
       52.804027
 21
       17.317508
 31
        0.000000
  0
LINE
  8
1
 10
       52.882979
 20
       17.443787
 30
        0.000000
 11
       52.838470
 21
       17.383748
 31
        0.000000
  0
LINE
  8
1
 10
       54.223556
 20
       17.925878
 30
        0.000000
 11
       53.936942
 21
       17.893029
 31
        0.000000
  0
LINE
  8
1
 10
       53.011896
 20
       17.562272
 30
        0.000000
 11
       52.944144
 21
       17.506612
 31
        0.000000
  0
LINE
  8
1
 10
       53.316453
 20
       17.731167
 30
        0.000000
 11
       53.011896
 21
       17.562272
 31
        0.000000
  0
LINE
  8
1
 10
       53.652441
 20
       17.836791
 30
        0.000000
 11
       53.316453
 21
       17.731167
 31
        0.000000
  0
LINE
  8
1
 10
       53.936942
 20
       17.893029
 30
        0.000000
 11
       53.652441
 21
       17.836791
 31
        0.000000
  0
LINE
  8
1
 10
       54.375312
 20
       17.934449
 30
        0.000000
 11
       54.223556
 21
       17.925878
 31
        0.000000
  0
LINE
  8
1
 10
       54.527441
 20
       17.937272
 30
        0.000000
 11
       54.375312
 21
       17.934449
 31
        0.000000
  0
LINE
  8
1
 10
       54.679569
 20
       17.934449
 30
        0.000000
 11
       54.527441
 21
       17.937272
 31
        0.000000
  0
LINE
  8
1
 10
       54.831325
 20
       17.925878
 30
        0.000000
 11
       54.679569
 21
       17.934449
 31
        0.000000
  0
LINE
  8
1
 10
       56.042985
 20
       17.562272
 30
        0.000000
 11
       55.738428
 21
       17.731167
 31
        0.000000
  0
LINE
  8
1
 10
       55.402441
 20
       17.836791
 30
        0.000000
 11
       55.117939
 21
       17.893029
 31
        0.000000
  0
LINE
  8
1
 10
       55.738428
 20
       17.731167
 30
        0.000000
 11
       55.402441
 21
       17.836791
 31
        0.000000
  0
LINE
  8
1
 10
       56.110738
 20
       17.506612
 30
        0.000000
 11
       56.042985
 21
       17.562272
 31
        0.000000
  0
LINE
  8
1
 10
       56.171903
 20
       17.443787
 30
        0.000000
 11
       56.110738
 21
       17.506612
 31
        0.000000
  0
LINE
  8
1
 10
       56.216412
 20
       17.383748
 30
        0.000000
 11
       56.171903
 21
       17.443787
 31
        0.000000
  0
LINE
  8
1
 10
       56.250854
 20
       17.317508
 30
        0.000000
 11
       56.216412
 21
       17.383748
 31
        0.000000
  0
LINE
  8
1
 10
       63.027441
 20
       16.000000
 30
        0.000000
 11
       63.027441
 21
       19.500000
 31
        0.000000
  0
LINE
  8
1
 10
       63.827441
 20
       16.000000
 30
        0.000000
 11
       63.827441
 21
       19.500000
 31
        0.000000
  0
LINE
  8
1
 10
       64.427441
 20
       16.000000
 30
        0.000000
 11
       64.427441
 21
       19.500000
 31
        0.000000
  0
LINE
  8
1
 10
       64.827441
 20
       16.000000
 30
        0.000000
 11
       64.827441
 21
       19.500000
 31
        0.000000
  0
LINE
  8
1
 10
       65.027441
 20
       19.500000
 30
        0.000000
 11
       65.027441
 21
       16.000000
 31
        0.000000
  0
LINE
  8
1
 10
       63.027441
 20
       16.000000
 30
        0.000000
 11
       63.027441
 21
       19.500000
 31
        0.000000
  0
LINE
  8
1
 10
       62.227441
 20
       16.000000
 30
        0.000000
 11
       62.227441
 21
       19.500000
 31
        0.000000
  0
LINE
  8
1
 10
       61.627441
 20
       16.000000
 30
        0.000000
 11
       61.627441
 21
       19.500000
 31
        0.000000
  0
LINE
  8
1
 10
       61.227441
 20
       16.000000
 30
        0.000000
 11
       61.227441
 21
       19.500000
 31
        0.000000
  0
LINE
  8
1
 10
       61.027441
 20
       19.500000
 30
        0.000000
 11
       61.027441
 21
       16.000000
 31
        0.000000
  0
LINE
  8
1
 10
       65.027441
 20
       16.000000
 30
        0.000000
 11
       61.027441
 21
       16.000000
 31
        0.000000
  0
LINE
  8
1
 10
       62.177441
 20
       15.000000
 30
        0.000000
 11
       62.177441
 21
       16.000000
 31
        0.000000
  0
LINE
  8
1
 10
       62.355441
 20
       15.000000
 30
        0.000000
 11
       62.355441
 21
       16.000000
 31
        0.000000
  0
LINE
  8
1
 10
       63.699441
 20
       15.000000
 30
        0.000000
 11
       63.699441
 21
       16.000000
 31
        0.000000
  0
LINE
  8
1
 10
       63.877441
 20
       15.000000
 30
        0.000000
 11
       63.877441
 21
       16.000000
 31
        0.000000
  0
LINE
  8
1
 10
       64.527441
 20
       20.000000
 30
        0.000000
 11
       65.027441
 21
       19.500000
 31
        0.000000
  0
LINE
  8
1
 10
       61.027441
 20
       19.500000
 30
        0.000000
 11
       65.027441
 21
       19.500000
 31
        0.000000
  0
LINE
  8
1
 10
       61.527441
 20
       20.000000
 30
        0.000000
 11
       61.027441
 21
       19.500000
 31
        0.000000
  0
LINE
  8
1
 10
       61.077441
 20
       15.000000
 30
        0.000000
 11
       61.077441
 21
      -15.000000
 31
        0.000000
  0
LINE
  8
1
 10
       64.977441
 20
      -15.000000
 30
        0.000000
 11
       64.977441
 21
       15.000000
 31
        0.000000
  0
LINE
  8
1
 10
       61.077441
 20
       14.500000
 30
        0.000000
 11
       64.977441
 21
       14.500000
 31
        0.000000
  0
LINE
  8
1
 10
       61.077441
 20
       14.000000
 30
        0.000000
 11
       64.977441
 21
       14.000000
 31
        0.000000
  0
LINE
  8
1
 10
       61.077441
 20
       13.500000
 30
        0.000000
 11
       64.977441
 21
       13.500000
 31
        0.000000
  0
LINE
  8
1
 10
       61.077441
 20
       13.000000
 30
        0.000000
 11
       64.977441
 21
       13.000000
 31
        0.000000
  0
LINE
  8
1
 10
       61.077441
 20
       12.500000
 30
        0.000000
 11
       64.977441
 21
       12.500000
 31
        0.000000
  0
LINE
  8
1
 10
       61.077441
 20
       11.500000
 30
        0.000000
 11
       64.977441
 21
       11.500000
 31
        0.000000
  0
LINE
  8
1
 10
       61.077441
 20
       10.500000
 30
        0.000000
 11
       64.977441
 21
       10.500000
 31
        0.000000
  0
LINE
  8
1
 10
       61.077441
 20
        9.500000
 30
        0.000000
 11
       64.977441
 21
        9.500000
 31
        0.000000
  0
LINE
  8
1
 10
       61.077441
 20
        8.500000
 30
        0.000000
 11
       64.977441
 21
        8.500000
 31
        0.000000
  0
LINE
  8
1
 10
       61.077441
 20
        7.500000
 30
        0.000000
 11
       64.977441
 21
        7.500000
 31
        0.000000
  0
LINE
  8
1
 10
       61.077441
 20
        6.000000
 30
        0.000000
 11
       64.977441
 21
        6.000000
 31
        0.000000
  0
LINE
  8
1
 10
       61.077441
 20
        4.500000
 30
        0.000000
 11
       64.977441
 21
        4.500000
 31
        0.000000
  0
LINE
  8
1
 10
       61.077441
 20
        3.000000
 30
        0.000000
 11
       64.977441
 21
        3.000000
 31
        0.000000
  0
LINE
  8
1
 10
       61.077441
 20
        1.500000
 30
        0.000000
 11
       64.977441
 21
        1.500000
 31
        0.000000
  0
LINE
  8
1
 10
       61.077441
 20
        0.000000
 30
        0.000000
 11
       64.977441
 21
        0.000000
 31
        0.000000
  0
LINE
  8
1
 10
       61.077441
 20
       -1.500000
 30
        0.000000
 11
       64.977441
 21
       -1.500000
 31
        0.000000
  0
LINE
  8
1
 10
       61.077441
 20
       -3.000000
 30
        0.000000
 11
       64.977441
 21
       -3.000000
 31
        0.000000
  0
LINE
  8
1
 10
       61.077441
 20
       -4.500000
 30
        0.000000
 11
       64.977441
 21
       -4.500000
 31
        0.000000
  0
LINE
  8
1
 10
       61.077441
 20
       -6.000000
 30
        0.000000
 11
       64.977441
 21
       -6.000000
 31
        0.000000
  0
LINE
  8
1
 10
       61.077441
 20
       -7.500000
 30
        0.000000
 11
       64.977441
 21
       -7.500000
 31
        0.000000
  0
LINE
  8
1
 10
       61.077441
 20
       -8.500000
 30
        0.000000
 11
       64.977441
 21
       -8.500000
 31
        0.000000
  0
LINE
  8
1
 10
       61.077441
 20
       -9.500000
 30
        0.000000
 11
       64.977441
 21
       -9.500000
 31
        0.000000
  0
LINE
  8
1
 10
       61.077441
 20
      -10.500000
 30
        0.000000
 11
       64.977441
 21
      -10.500000
 31
        0.000000
  0
LINE
  8
1
 10
       61.077441
 20
      -11.500000
 30
        0.000000
 11
       64.977441
 21
      -11.500000
 31
        0.000000
  0
LINE
  8
1
 10
       61.077441
 20
      -12.500000
 30
        0.000000
 11
       64.977441
 21
      -12.500000
 31
        0.000000
  0
LINE
  8
1
 10
       61.077441
 20
      -13.000000
 30
        0.000000
 11
       64.977441
 21
      -13.000000
 31
        0.000000
  0
LINE
  8
1
 10
       61.077441
 20
      -13.500000
 30
        0.000000
 11
       64.977441
 21
      -13.500000
 31
        0.000000
  0
LINE
  8
1
 10
       61.077441
 20
      -14.000000
 30
        0.000000
 11
       64.977441
 21
      -14.000000
 31
        0.000000
  0
LINE
  8
1
 10
       61.077441
 20
      -14.500000
 30
        0.000000
 11
       64.977441
 21
      -14.500000
 31
        0.000000
  0
LINE
  8
1
 10
       60.777441
 20
       14.700000
 30
        0.000000
 11
       56.527441
 21
       14.700000
 31
        0.000000
  0
LINE
  8
1
 10
       56.277441
 20
      -14.700000
 30
        0.000000
 11
       60.777441
 21
      -14.700000
 31
        0.000000
  0
LINE
  8
1
 10
        7.585841
 20
       13.688591
 30
        0.000000
 11
        9.282355
 21
       16.749937
 31
        0.000000
  0
LINE
  8
1
 10
        2.000000
 20
       19.500000
 30
        0.000000
 11
        2.000000
 21
       16.000000
 31
        0.000000
  0
LINE
  8
1
 10
        1.800000
 20
       16.000000
 30
        0.000000
 11
        1.800000
 21
       19.500000
 31
        0.000000
  0
LINE
  8
1
 10
        1.400000
 20
       16.000000
 30
        0.000000
 11
        1.400000
 21
       19.500000
 31
        0.000000
  0
LINE
  8
1
 10
        0.800000
 20
       16.000000
 30
        0.000000
 11
        0.800000
 21
       19.500000
 31
        0.000000
  0
LINE
  8
1
 10
       -1.500000
 20
       20.000000
 30
        0.000000
 11
        1.500000
 21
       20.000000
 31
        0.000000
  0
DIMENSION
  8
0
 62
  3
  2
BLK0001
 10
      -15.000000
 20
      -24.025990
 11
       -3.750000
 21
      -23.525990
 13
      -15.000000
 23
        0.000000
 14
       15.000000
 24
        0.000000
 50
        0.0
 70
  0
  0
DIMENSION
  8
0
 62
  3
  2
BLK0002
 10
       38.777439
 20
      -24.025990
 11
       51.277439
 21
      -23.525990
 13
       38.777439
 23
      -14.350000
 14
       68.777443
 24
      -14.400000
 50
        0.0
 70
  0
  0
LINE
  8
1
  6
CENTER
 10
      -18.232877
 20
        0.000000
 30
        0.000000
 11
       89.303441
 21
        0.000000
 31
        0.000000
  0
LINE
  8
1
  6
CENTER
 10
        0.000000
 20
      -17.857930
 30
        0.000000
 11
        0.000000
 21
       26.718717
 31
        0.000000
  0
ENDSEC
  0
EOF
