  0
SECTION
  2
HEADER
  9
$ACADVER
  1
AC1006
  9
$INSBASE
 10
0.0
 20
0.0
 30
0.0
  9
$EXTMIN
 10
      -20.049999
 20
      -20.049999
  9
$EXTMAX
 10
       80.599159
 20
       27.982058
  9
$LIMMIN
 10
      -20.049999
 20
      -20.049999
  9
$LIMMAX
 10
       80.599159
 20
       27.982058
  9
$VIEWCTR
 10
       30.274580
 20
       30.274580
  9
$ORTHOMODE
 70
     0
  9
$ANGBASE
 50
0.0
  9
$ANGDIR
 70
     0
  9
$SPLINETYPE
 70
     6
  9
$SPLINESEGS
 70
     8
9
$DIMASZ
 40
        2.500000
9
$DIMEXE
 40
        0.500000
9
$DIMEXO
 40
        1.000000
9
$DIMTXT
 40
        2.500000
9
$DIMGAP
 40
        0.500000
9
$DIMTAD
 70
1
9
$DIMTIH
 70
0
9
$DIMTOH
 70
0
  0
ENDSEC
  0
SECTION
  2
TABLES
  0
TABLE
  2
LTYPE
 70
     5
  0
LTYPE
  2
CONTINUOUS
 70
    64
  3
SOLID LINE
 72
    65
 73
     0
 40
0.0
  0
LTYPE
  2
DASHED
 70
    64
  3
-- -- -- -- -- --
 72
    65
 73
     2
 40
  0.75  
 49
  0.50  
 49
 -0.25  
  0
LTYPE
  2
DOT
 70
    64
  3
....................
 72
    65
 73
     2
 40
  0.25  
 49
  0.02  
 49
 -0.23  
  0
LTYPE
  2
CENTER
 70
    64
  3
-- . -- . -- . -- .
 72
    65
 73
    4
 40
  2.00  
 49
  1.25  
 49
 -0.25  
 49
  0.25  
 49
 -0.25  
  0
LTYPE
  2
PHANTOM
 70
    64
  3
-- .. -- .. -- ..
 72
    65
 73
    6
 40
  2.50  
 49
  1.25  
 49
 -0.25  
 49
  0.25  
 49
 -0.25  
 49
  0.25  
 49
 -0.25  
  0
ENDTAB
  0
TABLE
  2
LAYER
 70
     4
  0
LAYER
  2
0
 70
    64
 62
     2
  6
CONTINUOUS
  0
LAYER
  2
1
 70
    64
 62
     3
  6
CONTINUOUS
  0
LAYER
  2
2
 70
    64
 62
     3
  6
CONTINUOUS
  0
LAYER
  2
3
 70
    64
 62
     3
  6
CONTINUOUS
  0
ENDTAB
  0
TABLE
  2
STYLE
 70
     2
  0
STYLE
  2
STANDARD
 70
    64
 40
0.0
 41
1.0
 50
0.0
 71
     0
 42
5.0
  3
ROMANS
  4
BIGFONT
  0
STYLE
  2
BIGFONT
 70
    64
 40
0.0
 41
1.0
 50
0.0
 71
     0
 42
5.0
  3
ROMANS
  4
BIGFONT
  0
ENDTAB
  0
TABLE
  2
VIEW
 70
     0
  0
ENDTAB
  0
TABLE
  2
UCS
 70
     0
  0
ENDTAB
  0
TABLE
  2
DWGMGR
 70
     0
  0
ENDTAB
  0
ENDSEC
  0
SECTION
  2
BLOCKS
  0
BLOCK
  8
0
  2
BLK0001
 70
    64
 10
        0.000000
 20
        0.000000
  0
TEXT
  8
0
 62
  5
 10
       48.101837
 20
      -28.148966
 30
        0.000000
 40
        2.500000
  1
３４．５
 50
        0.000000
 41
        1.000000
 51
        0.000000
  7
BIGFONT
  0
LINE
  8
0
 62
  5
 10
       35.851822
 20
      -14.800000
 30
        0.000000
 11
       35.851822
 21
      -29.148966
 31
        0.000000
  0
LINE
  8
0
 62
  5
 10
       70.351852
 20
      -15.200000
 30
        0.000000
 11
       70.351852
 21
      -29.148966
 31
        0.000000
  0
LINE
  8
0
 62
  5
 10
       38.351822
 20
      -27.994467
 30
        0.000000
 11
       35.851822
 21
      -28.648966
 31
        0.000000
  0
LINE
  8
0
 62
  5
 10
       35.851822
 20
      -28.648966
 30
        0.000000
 11
       38.351822
 21
      -29.303465
 31
        0.000000
  0
LINE
  8
0
 62
  5
 10
       67.851852
 20
      -29.303465
 30
        0.000000
 11
       70.351852
 21
      -28.648966
 31
        0.000000
  0
LINE
  8
0
 62
  5
 10
       70.351852
 20
      -28.648966
 30
        0.000000
 11
       67.851852
 21
      -27.994467
 31
        0.000000
  0
LINE
  8
0
 62
  5
 10
       35.851822
 20
      -28.648966
 30
        0.000000
 11
       70.351852
 21
      -28.648966
 31
        0.000000
  0
ENDBLK
  0
BLOCK
  8
0
  2
BLK0002
 70
    64
 10
        0.000000
 20
        0.000000
  0
TEXT
  8
0
 62
  5
 10
       -3.750000
 20
      -28.148966
 30
        0.000000
 40
        2.500000
  1
φ３０
 50
        0.000000
 41
        1.000000
 51
        0.000000
  7
BIGFONT
  0
LINE
  8
0
 62
  5
 10
      -15.000000
 20
       -1.000000
 30
        0.000000
 11
      -15.000000
 21
      -29.148966
 31
        0.000000
  0
LINE
  8
0
 62
  5
 10
       15.000000
 20
       -1.000000
 30
        0.000000
 11
       15.000000
 21
      -29.148966
 31
        0.000000
  0
LINE
  8
0
 62
  5
 10
      -12.500000
 20
      -27.994467
 30
        0.000000
 11
      -15.000000
 21
      -28.648966
 31
        0.000000
  0
LINE
  8
0
 62
  5
 10
      -15.000000
 20
      -28.648966
 30
        0.000000
 11
      -12.500000
 21
      -29.303465
 31
        0.000000
  0
LINE
  8
0
 62
  5
 10
       12.500000
 20
      -29.303465
 30
        0.000000
 11
       15.000000
 21
      -28.648966
 31
        0.000000
  0
LINE
  8
0
 62
  5
 10
       15.000000
 20
      -28.648966
 30
        0.000000
 11
       12.500000
 21
      -27.994467
 31
        0.000000
  0
LINE
  8
0
 62
  5
 10
      -15.000000
 20
      -28.648966
 30
        0.000000
 11
       15.000000
 21
      -28.648966
 31
        0.000000
  0
ENDBLK
  0
ENDSEC
  0
SECTION
  2
ENTITIES
  0
LINE
  8
1
 10
       58.151851
 20
       19.500000
 30
        0.000000
 11
       58.351851
 21
       19.300000
 31
        0.000000
  0
LINE
  8
1
 10
       56.351851
 20
       15.700000
 30
        0.000000
 11
       56.351851
 21
       19.300000
 31
        0.000000
  0
LINE
  8
1
 10
       58.007254
 20
       15.700000
 30
        0.000000
 11
       58.007254
 21
       19.300000
 31
        0.000000
  0
LINE
  8
1
 10
       57.562223
 20
       15.700000
 30
        0.000000
 11
       57.562223
 21
       19.300000
 31
        0.000000
  0
LINE
  8
1
 10
       56.990468
 20
       15.700000
 30
        0.000000
 11
       56.990468
 21
       19.300000
 31
        0.000000
  0
LINE
  8
1
 10
       58.278967
 20
       15.700000
 30
        0.000000
 11
       58.278967
 21
       19.300000
 31
        0.000000
  0
LINE
  8
1
 10
       58.351851
 20
       15.700000
 30
        0.000000
 11
       58.351851
 21
       19.300000
 31
        0.000000
  0
LINE
  8
1
 10
       54.351851
 20
       19.300000
 30
        0.000000
 11
       54.551851
 21
       19.500000
 31
        0.000000
  0
LINE
  8
1
 10
       55.141478
 20
       15.700000
 30
        0.000000
 11
       55.141478
 21
       19.300000
 31
        0.000000
  0
LINE
  8
1
 10
       54.424734
 20
       15.700000
 30
        0.000000
 11
       54.424734
 21
       19.300000
 31
        0.000000
  0
LINE
  8
1
 10
       54.696447
 20
       15.700000
 30
        0.000000
 11
       54.696447
 21
       19.300000
 31
        0.000000
  0
LINE
  8
1
 10
       55.713233
 20
       19.300000
 30
        0.000000
 11
       55.713233
 21
       15.700000
 31
        0.000000
  0
LINE
  8
1
 10
       54.351851
 20
       15.700000
 30
        0.000000
 11
       54.351851
 21
       19.300000
 31
        0.000000
  0
LINE
  8
1
 10
       54.351851
 20
       19.300000
 30
        0.000000
 11
       58.351851
 21
       19.300000
 31
        0.000000
  0
LINE
  8
1
 10
       54.551851
 20
       19.500000
 30
        0.000000
 11
       58.151851
 21
       19.500000
 31
        0.000000
  0
LINE
  8
1
 10
       54.551851
 20
       15.500000
 30
        0.000000
 11
       58.151851
 21
       15.500000
 31
        0.000000
  0
LINE
  8
1
 10
       54.351851
 20
       15.700000
 30
        0.000000
 11
       58.351851
 21
       15.700000
 31
        0.000000
  0
LINE
  8
1
 10
       54.551851
 20
       15.500000
 30
        0.000000
 11
       54.351851
 21
       15.700000
 31
        0.000000
  0
LINE
  8
1
 10
       58.351851
 20
       15.700000
 30
        0.000000
 11
       58.151851
 21
       15.500000
 31
        0.000000
  0
LINE
  8
1
 10
       64.151851
 20
      -19.850000
 30
        0.000000
 11
       64.151851
 21
      -16.250000
 31
        0.000000
  0
LINE
  8
1
 10
       64.790468
 20
      -19.850000
 30
        0.000000
 11
       64.790468
 21
      -16.250000
 31
        0.000000
  0
LINE
  8
1
 10
       62.224734
 20
      -16.250000
 30
        0.000000
 11
       62.224734
 21
      -19.850000
 31
        0.000000
  0
LINE
  8
1
 10
       62.151851
 20
      -16.250000
 30
        0.000000
 11
       62.151851
 21
      -19.850000
 31
        0.000000
  0
LINE
  8
1
 10
       62.496447
 20
      -16.250000
 30
        0.000000
 11
       62.496447
 21
      -19.850000
 31
        0.000000
  0
LINE
  8
1
 10
       62.941478
 20
      -16.250000
 30
        0.000000
 11
       62.941478
 21
      -19.850000
 31
        0.000000
  0
LINE
  8
1
 10
       63.513233
 20
      -16.250000
 30
        0.000000
 11
       63.513233
 21
      -19.850000
 31
        0.000000
  0
LINE
  8
1
 10
       65.362223
 20
      -16.250000
 30
        0.000000
 11
       65.362223
 21
      -19.850000
 31
        0.000000
  0
LINE
  8
1
 10
       66.078967
 20
      -16.250000
 30
        0.000000
 11
       66.078967
 21
      -19.850000
 31
        0.000000
  0
LINE
  8
1
 10
       65.807254
 20
      -16.250000
 30
        0.000000
 11
       65.807254
 21
      -19.850000
 31
        0.000000
  0
LINE
  8
1
 10
       64.790468
 20
      -19.850000
 30
        0.000000
 11
       64.790468
 21
      -16.250000
 31
        0.000000
  0
LINE
  8
1
 10
       66.151851
 20
      -16.250000
 30
        0.000000
 11
       66.151851
 21
      -19.850000
 31
        0.000000
  0
LINE
  8
1
 10
       58.451851
 20
       14.650000
 30
        0.000000
 11
       62.851851
 21
       14.650000
 31
        0.000000
  0
LINE
  8
1
 10
       58.451851
 20
      -14.650000
 30
        0.000000
 11
       62.851851
 21
      -14.650000
 31
        0.000000
  0
LINE
  8
1
 10
       57.851851
 20
      -14.450000
 30
        0.000000
 11
       57.851851
 21
        0.000000
 31
        0.000000
  0
LINE
  8
1
 10
       54.851851
 20
        0.000000
 30
        0.000000
 11
       54.851851
 21
      -14.450000
 31
        0.000000
  0
LINE
  8
1
 10
       58.351851
 20
       14.200000
 30
        0.000000
 11
       58.351851
 21
      -14.200000
 31
        0.000000
  0
LINE
  8
1
 10
       55.051851
 20
      -14.650000
 30
        0.000000
 11
       57.651851
 21
      -14.650000
 31
        0.000000
  0
LINE
  8
1
 10
       54.351823
 20
      -13.750000
 30
        0.000000
 11
       54.851851
 21
      -13.750000
 31
        0.000000
  0
LINE
  8
1
 10
       54.851851
 20
      -14.450000
 30
        0.000000
 11
       55.051851
 21
      -14.650000
 31
        0.000000
  0
LINE
  8
1
 10
       58.351851
 20
      -14.550000
 30
        0.000000
 11
       58.451851
 21
      -14.650000
 31
        0.000000
  0
LINE
  8
1
 10
       58.351851
 20
      -14.200000
 30
        0.000000
 11
       58.351851
 21
      -14.550000
 31
        0.000000
  0
LINE
  8
1
 10
       57.851851
 20
      -13.750000
 30
        0.000000
 11
       58.351851
 21
      -13.750000
 31
        0.000000
  0
LINE
  8
1
 10
       57.651851
 20
      -14.650000
 30
        0.000000
 11
       57.851851
 21
      -14.450000
 31
        0.000000
  0
LINE
  8
1
 10
       57.851851
 20
       14.450000
 30
        0.000000
 11
       57.851851
 21
        0.000000
 31
        0.000000
  0
LINE
  8
1
 10
       54.851851
 20
        0.000000
 30
        0.000000
 11
       54.851851
 21
       14.450000
 31
        0.000000
  0
LINE
  8
1
 10
       55.051851
 20
       14.650000
 30
        0.000000
 11
       57.651851
 21
       14.650000
 31
        0.000000
  0
LINE
  8
1
 10
       55.501851
 20
       15.000000
 30
        0.000000
 11
       57.201851
 21
       15.000000
 31
        0.000000
  0
LINE
  8
1
 10
       54.351823
 20
       13.750000
 30
        0.000000
 11
       54.851851
 21
       13.750000
 31
        0.000000
  0
LINE
  8
1
 10
       54.851851
 20
       14.450000
 30
        0.000000
 11
       55.051851
 21
       14.650000
 31
        0.000000
  0
LINE
  8
1
 10
       55.501851
 20
       14.650000
 30
        0.000000
 11
       55.501851
 21
       15.000000
 31
        0.000000
  0
LINE
  8
1
 10
       55.676851
 20
       15.000000
 30
        0.000000
 11
       55.676851
 21
       15.500000
 31
        0.000000
  0
LINE
  8
1
 10
       55.676851
 20
       14.650000
 30
        0.000000
 11
       55.676851
 21
       15.000000
 31
        0.000000
  0
LINE
  8
1
 10
       58.351851
 20
       14.550000
 30
        0.000000
 11
       58.451851
 21
       14.650000
 31
        0.000000
  0
LINE
  8
1
 10
       58.351851
 20
       14.200000
 30
        0.000000
 11
       58.351851
 21
       14.550000
 31
        0.000000
  0
LINE
  8
1
 10
       57.851851
 20
       13.750000
 30
        0.000000
 11
       58.351851
 21
       13.750000
 31
        0.000000
  0
LINE
  8
1
 10
       57.651851
 20
       14.650000
 30
        0.000000
 11
       57.851851
 21
       14.450000
 31
        0.000000
  0
LINE
  8
1
 10
       57.201851
 20
       14.650000
 30
        0.000000
 11
       57.201851
 21
       15.000000
 31
        0.000000
  0
LINE
  8
1
 10
       57.026851
 20
       15.000000
 30
        0.000000
 11
       57.026851
 21
       15.500000
 31
        0.000000
  0
LINE
  8
1
 10
       57.026851
 20
       14.650000
 30
        0.000000
 11
       57.026851
 21
       15.000000
 31
        0.000000
  0
LINE
  8
1
 10
       70.351851
 20
      -14.200000
 30
        0.000000
 11
       70.351851
 21
        0.000000
 31
        0.000000
  0
LINE
  8
1
 10
       66.451851
 20
       13.750000
 30
        0.000000
 11
       66.451851
 21
      -13.750000
 31
        0.000000
  0
LINE
  8
1
 10
       66.451851
 20
      -14.450000
 30
        0.000000
 11
       66.451851
 21
       14.450000
 31
        0.000000
  0
LINE
  8
1
 10
       63.151851
 20
       15.000000
 30
        0.000000
 11
       63.151851
 21
      -15.000000
 31
        0.000000
  0
LINE
  8
1
 10
       66.151851
 20
      -15.000000
 30
        0.000000
 11
       66.151851
 21
       15.000000
 31
        0.000000
  0
LINE
  8
1
 10
       71.748726
 20
       12.700000
 30
        0.000000
 11
       71.748726
 21
      -12.700000
 31
        0.000000
  0
LINE
  8
1
 10
       73.954976
 20
       12.700000
 30
        0.000000
 11
       73.954976
 21
      -12.700000
 31
        0.000000
  0
LINE
  8
1
 10
       62.851851
 20
       14.650000
 30
        0.000000
 11
       62.851851
 21
      -14.650000
 31
        0.000000
  0
LINE
  8
1
 10
       71.351851
 20
       12.303125
 30
        0.000000
 11
       71.351851
 21
      -12.303125
 31
        0.000000
  0
LINE
  8
1
 10
       69.851851
 20
       14.700000
 30
        0.000000
 11
       69.851851
 21
      -14.700000
 31
        0.000000
  0
LINE
  8
1
 10
       73.954976
 20
      -12.700000
 30
        0.000000
 11
       71.748726
 21
      -12.700000
 31
        0.000000
  0
LINE
  8
1
 10
       71.351851
 20
      -12.303125
 30
        0.000000
 11
       74.351851
 21
      -12.303125
 31
        0.000000
  0
LINE
  8
1
 10
       66.651851
 20
      -14.700000
 30
        0.000000
 11
       69.851851
 21
      -14.700000
 31
        0.000000
  0
LINE
  8
1
 10
       65.951851
 20
      -20.050000
 30
        0.000000
 11
       62.351851
 21
      -20.050000
 31
        0.000000
  0
LINE
  8
1
 10
       66.151851
 20
      -19.850000
 30
        0.000000
 11
       62.151851
 21
      -19.850000
 31
        0.000000
  0
LINE
  8
1
 10
       62.351851
 20
      -20.050000
 30
        0.000000
 11
       62.151851
 21
      -19.850000
 31
        0.000000
  0
LINE
  8
1
 10
       66.151851
 20
      -19.850000
 30
        0.000000
 11
       65.951851
 21
      -20.050000
 31
        0.000000
  0
LINE
  8
1
 10
       63.151851
 20
      -15.000000
 30
        0.000000
 11
       66.151851
 21
      -15.000000
 31
        0.000000
  0
LINE
  8
1
 10
       65.951851
 20
      -16.050000
 30
        0.000000
 11
       62.351851
 21
      -16.050000
 31
        0.000000
  0
LINE
  8
1
 10
       65.001851
 20
      -15.550000
 30
        0.000000
 11
       63.301851
 21
      -15.550000
 31
        0.000000
  0
LINE
  8
1
 10
       66.151851
 20
      -16.250000
 30
        0.000000
 11
       62.151851
 21
      -16.250000
 31
        0.000000
  0
LINE
  8
1
 10
       63.151851
 20
      -14.791054
 30
        0.000000
 11
       66.151851
 21
      -14.791054
 31
        0.000000
  0
LINE
  8
1
 10
       63.151851
 20
      -14.591380
 30
        0.000000
 11
       66.151851
 21
      -14.591380
 31
        0.000000
  0
LINE
  8
1
 10
       63.151851
 20
      -14.326538
 30
        0.000000
 11
       66.151851
 21
      -14.326538
 31
        0.000000
  0
LINE
  8
1
 10
       63.151851
 20
      -13.997709
 30
        0.000000
 11
       66.151851
 21
      -13.997709
 31
        0.000000
  0
LINE
  8
1
 10
       63.151851
 20
      -13.606364
 30
        0.000000
 11
       66.151851
 21
      -13.606364
 31
        0.000000
  0
LINE
  8
1
 10
       63.151851
 20
      -13.154249
 30
        0.000000
 11
       66.151851
 21
      -13.154249
 31
        0.000000
  0
LINE
  8
1
 10
       63.151851
 20
      -12.643384
 30
        0.000000
 11
       66.151851
 21
      -12.643384
 31
        0.000000
  0
LINE
  8
1
 10
       63.151851
 20
      -12.076051
 30
        0.000000
 11
       66.151851
 21
      -12.076051
 31
        0.000000
  0
LINE
  8
1
 10
       64.826851
 20
      -15.550000
 30
        0.000000
 11
       64.826851
 21
      -16.050000
 31
        0.000000
  0
LINE
  8
1
 10
       64.826851
 20
      -15.000000
 30
        0.000000
 11
       64.826851
 21
      -15.550000
 31
        0.000000
  0
LINE
  8
1
 10
       62.851851
 20
      -14.700000
 30
        0.000000
 11
       63.151851
 21
      -15.000000
 31
        0.000000
  0
LINE
  8
1
 10
       62.851851
 20
      -14.650000
 30
        0.000000
 11
       62.851851
 21
      -14.700000
 31
        0.000000
  0
LINE
  8
1
 10
       63.476851
 20
      -15.550000
 30
        0.000000
 11
       63.476851
 21
      -16.050000
 31
        0.000000
  0
LINE
  8
1
 10
       63.301851
 20
      -15.000000
 30
        0.000000
 11
       63.301851
 21
      -15.550000
 31
        0.000000
  0
LINE
  8
1
 10
       63.476851
 20
      -15.000000
 30
        0.000000
 11
       63.476851
 21
      -15.550000
 31
        0.000000
  0
LINE
  8
1
 10
       62.151851
 20
      -16.250000
 30
        0.000000
 11
       62.351851
 21
      -16.050000
 31
        0.000000
  0
LINE
  8
1
 10
       66.451851
 20
      -14.700000
 30
        0.000000
 11
       66.451851
 21
      -14.450000
 31
        0.000000
  0
LINE
  8
1
 10
       66.151851
 20
      -15.000000
 30
        0.000000
 11
       66.451851
 21
      -14.700000
 31
        0.000000
  0
LINE
  8
1
 10
       65.951851
 20
      -16.050000
 30
        0.000000
 11
       66.151851
 21
      -16.250000
 31
        0.000000
  0
LINE
  8
1
 10
       65.001851
 20
      -15.000000
 30
        0.000000
 11
       65.001851
 21
      -15.550000
 31
        0.000000
  0
LINE
  8
1
 10
       66.451851
 20
      -14.500000
 30
        0.000000
 11
       66.651851
 21
      -14.700000
 31
        0.000000
  0
LINE
  8
1
 10
       71.351851
 20
      -12.303125
 30
        0.000000
 11
       70.351851
 21
      -12.303125
 31
        0.000000
  0
LINE
  8
1
 10
       69.851851
 20
      -14.700000
 30
        0.000000
 11
       70.351851
 21
      -14.200000
 31
        0.000000
  0
LINE
  8
1
 10
       71.748726
 20
      -12.700000
 30
        0.000000
 11
       71.351851
 21
      -12.303125
 31
        0.000000
  0
LINE
  8
1
 10
       73.954976
 20
      -12.700000
 30
        0.000000
 11
       74.351851
 21
      -12.303125
 31
        0.000000
  0
LINE
  8
1
 10
       70.351851
 20
        0.000000
 30
        0.000000
 11
       70.351851
 21
       14.200000
 31
        0.000000
  0
CIRCLE
  8
1
 10
       68.451851
 20
        0.000000
 30
        0.000000
 40
        1.000000
  0
LINE
  8
1
 10
       67.744744
 20
       -0.707107
 30
        0.000000
 11
       69.158957
 21
        0.707107
 31
        0.000000
  0
LINE
  8
1
 10
       67.886165
 20
       -0.848528
 30
        0.000000
 11
       69.300379
 21
        0.565685
 31
        0.000000
  0
LINE
  8
1
 10
       63.151851
 20
      -11.454783
 30
        0.000000
 11
       66.151851
 21
      -11.454783
 31
        0.000000
  0
LINE
  8
1
 10
       63.151851
 20
      -10.782355
 30
        0.000000
 11
       66.151851
 21
      -10.782355
 31
        0.000000
  0
LINE
  8
1
 10
       63.151851
 20
      -10.061771
 30
        0.000000
 11
       66.151851
 21
      -10.061771
 31
        0.000000
  0
LINE
  8
1
 10
       63.151851
 20
       -9.296248
 30
        0.000000
 11
       66.151851
 21
       -9.296248
 31
        0.000000
  0
LINE
  8
1
 10
       63.151851
 20
       -8.489207
 30
        0.000000
 11
       66.151851
 21
       -8.489207
 31
        0.000000
  0
LINE
  8
1
 10
       63.151851
 20
       -7.644250
 30
        0.000000
 11
       66.151851
 21
       -7.644250
 31
        0.000000
  0
LINE
  8
1
 10
       63.151851
 20
       -6.765152
 30
        0.000000
 11
       66.151851
 21
       -6.765152
 31
        0.000000
  0
LINE
  8
1
 10
       63.151851
 20
       -5.855839
 30
        0.000000
 11
       66.151851
 21
       -5.855839
 31
        0.000000
  0
LINE
  8
1
 10
       63.151851
 20
       -4.920373
 30
        0.000000
 11
       66.151851
 21
       -4.920373
 31
        0.000000
  0
LINE
  8
1
 10
       63.151851
 20
       -3.962931
 30
        0.000000
 11
       66.151851
 21
       -3.962931
 31
        0.000000
  0
LINE
  8
1
 10
       63.151851
 20
       -2.987790
 30
        0.000000
 11
       66.151851
 21
       -2.987790
 31
        0.000000
  0
LINE
  8
1
 10
       63.151851
 20
       -1.999304
 30
        0.000000
 11
       66.151851
 21
       -1.999304
 31
        0.000000
  0
LINE
  8
1
 10
       63.151851
 20
       -1.001890
 30
        0.000000
 11
       66.151851
 21
       -1.001890
 31
        0.000000
  0
LINE
  8
1
 10
       63.151851
 20
        4.920373
 30
        0.000000
 11
       66.151851
 21
        4.920373
 31
        0.000000
  0
LINE
  8
1
 10
       63.151851
 20
        3.962931
 30
        0.000000
 11
       66.151851
 21
        3.962931
 31
        0.000000
  0
LINE
  8
1
 10
       63.151851
 20
        2.987790
 30
        0.000000
 11
       66.151851
 21
        2.987790
 31
        0.000000
  0
LINE
  8
1
 10
       63.151851
 20
        1.999304
 30
        0.000000
 11
       66.151851
 21
        1.999304
 31
        0.000000
  0
LINE
  8
1
 10
       63.151851
 20
        1.001889
 30
        0.000000
 11
       66.151851
 21
        1.001889
 31
        0.000000
  0
LINE
  8
1
 10
       63.151851
 20
       10.782355
 30
        0.000000
 11
       66.151851
 21
       10.782355
 31
        0.000000
  0
LINE
  8
1
 10
       63.151851
 20
       10.061771
 30
        0.000000
 11
       66.151851
 21
       10.061771
 31
        0.000000
  0
LINE
  8
1
 10
       63.151851
 20
        9.296248
 30
        0.000000
 11
       66.151851
 21
        9.296248
 31
        0.000000
  0
LINE
  8
1
 10
       63.151851
 20
        8.489206
 30
        0.000000
 11
       66.151851
 21
        8.489206
 31
        0.000000
  0
LINE
  8
1
 10
       63.151851
 20
        7.644250
 30
        0.000000
 11
       66.151851
 21
        7.644250
 31
        0.000000
  0
LINE
  8
1
 10
       63.151851
 20
        6.765152
 30
        0.000000
 11
       66.151851
 21
        6.765152
 31
        0.000000
  0
LINE
  8
1
 10
       63.151851
 20
        5.855839
 30
        0.000000
 11
       66.151851
 21
        5.855839
 31
        0.000000
  0
LINE
  8
1
 10
       76.651851
 20
        7.500000
 30
        0.000000
 11
       76.651851
 21
       -7.500000
 31
        0.000000
  0
LINE
  8
1
 10
       74.351851
 20
       -7.500000
 30
        0.000000
 11
       76.651851
 21
       -7.500000
 31
        0.000000
  0
LINE
  8
1
 10
       74.351851
 20
       -9.000000
 30
        0.000000
 11
       74.351851
 21
       -8.000000
 31
        0.000000
  0
LINE
  8
1
 10
       74.351851
 20
       -8.000000
 30
        0.000000
 11
       74.351851
 21
       -7.500000
 31
        0.000000
  0
LINE
  8
1
 10
       74.351851
 20
       -9.300000
 30
        0.000000
 11
       74.351851
 21
       -9.000000
 31
        0.000000
  0
LINE
  8
1
 10
       77.151851
 20
       -7.000000
 30
        0.000000
 11
       76.651851
 21
       -7.500000
 31
        0.000000
  0
LINE
  8
1
 10
       74.351851
 20
        7.500000
 30
        0.000000
 11
       76.651851
 21
        7.500000
 31
        0.000000
  0
LINE
  8
1
 10
       76.651851
 20
        7.500000
 30
        0.000000
 11
       77.151851
 21
        7.000000
 31
        0.000000
  0
LINE
  8
1
 10
       73.954976
 20
       12.700000
 30
        0.000000
 11
       71.748726
 21
       12.700000
 31
        0.000000
  0
LINE
  8
1
 10
       71.351851
 20
       12.303125
 30
        0.000000
 11
       74.351851
 21
       12.303125
 31
        0.000000
  0
LINE
  8
1
 10
       69.851851
 20
       14.700000
 30
        0.000000
 11
       66.651851
 21
       14.700000
 31
        0.000000
  0
LINE
  8
1
 10
       63.151851
 20
       15.000000
 30
        0.000000
 11
       66.151851
 21
       15.000000
 31
        0.000000
  0
LINE
  8
1
 10
       63.151851
 20
       14.791054
 30
        0.000000
 11
       66.151851
 21
       14.791054
 31
        0.000000
  0
LINE
  8
1
 10
       63.151851
 20
       14.591380
 30
        0.000000
 11
       66.151851
 21
       14.591380
 31
        0.000000
  0
LINE
  8
1
 10
       63.151851
 20
       14.326537
 30
        0.000000
 11
       66.151851
 21
       14.326537
 31
        0.000000
  0
LINE
  8
1
 10
       63.151851
 20
       13.997709
 30
        0.000000
 11
       66.151851
 21
       13.997709
 31
        0.000000
  0
LINE
  8
1
 10
       63.151851
 20
       13.606364
 30
        0.000000
 11
       66.151851
 21
       13.606364
 31
        0.000000
  0
LINE
  8
1
 10
       63.151851
 20
       13.154249
 30
        0.000000
 11
       66.151851
 21
       13.154249
 31
        0.000000
  0
LINE
  8
1
 10
       63.151851
 20
       12.643384
 30
        0.000000
 11
       66.151851
 21
       12.643384
 31
        0.000000
  0
LINE
  8
1
 10
       63.151851
 20
       12.076051
 30
        0.000000
 11
       66.151851
 21
       12.076051
 31
        0.000000
  0
LINE
  8
1
 10
       63.151851
 20
       11.454783
 30
        0.000000
 11
       66.151851
 21
       11.454783
 31
        0.000000
  0
LINE
  8
1
 10
       62.851851
 20
       14.700000
 30
        0.000000
 11
       63.151851
 21
       15.000000
 31
        0.000000
  0
LINE
  8
1
 10
       62.851851
 20
       14.650000
 30
        0.000000
 11
       62.851851
 21
       14.700000
 31
        0.000000
  0
LINE
  8
1
 10
       66.151851
 20
       15.000000
 30
        0.000000
 11
       66.451851
 21
       14.700000
 31
        0.000000
  0
LINE
  8
1
 10
       66.451851
 20
       14.700000
 30
        0.000000
 11
       66.451851
 21
       14.450000
 31
        0.000000
  0
LINE
  8
1
 10
       66.451851
 20
       14.500000
 30
        0.000000
 11
       66.651851
 21
       14.700000
 31
        0.000000
  0
LINE
  8
1
 10
       71.351851
 20
       12.303125
 30
        0.000000
 11
       70.351851
 21
       12.303125
 31
        0.000000
  0
LINE
  8
1
 10
       70.351851
 20
       14.200000
 30
        0.000000
 11
       69.851851
 21
       14.700000
 31
        0.000000
  0
LINE
  8
1
 10
       71.351851
 20
       12.303125
 30
        0.000000
 11
       71.748726
 21
       12.700000
 31
        0.000000
  0
LINE
  8
1
 10
       74.351851
 20
       12.303125
 30
        0.000000
 11
       73.954976
 21
       12.700000
 31
        0.000000
  0
LINE
  8
1
 10
       57.651851
 20
       14.650000
 30
        0.000000
 11
       57.651851
 21
      -14.650000
 31
        0.000000
  0
LINE
  8
1
 10
       55.051851
 20
       14.650000
 30
        0.000000
 11
       55.051851
 21
      -14.650000
 31
        0.000000
  0
LINE
  8
1
 10
       74.351851
 20
       12.303125
 30
        0.000000
 11
       74.351851
 21
      -12.303125
 31
        0.000000
  0
LINE
  8
1
 10
       77.151851
 20
        7.000000
 30
        0.000000
 11
       77.151851
 21
       -7.000000
 31
        0.000000
  0
LINE
  8
1
 10
       35.851823
 20
       13.800000
 30
        0.000000
 11
       35.851823
 21
      -13.800000
 31
        0.000000
  0
LINE
  8
1
 10
        2.000000
 20
      -19.850000
 30
        0.000000
 11
        1.800000
 21
      -20.050000
 31
        0.000000
  0
LINE
  8
1
 10
       -1.800000
 20
      -20.050000
 30
        0.000000
 11
       -2.000000
 21
      -19.850000
 31
        0.000000
  0
LINE
  8
1
 10
        2.000000
 20
      -19.850000
 30
        0.000000
 11
       -2.000000
 21
      -19.850000
 31
        0.000000
  0
LINE
  8
1
 10
        1.800000
 20
      -20.050000
 30
        0.000000
 11
       -1.800000
 21
      -20.050000
 31
        0.000000
  0
LINE
  8
1
 10
       -1.927116
 20
      -16.250000
 30
        0.000000
 11
       -1.927116
 21
      -19.850000
 31
        0.000000
  0
LINE
  8
1
 10
       -2.000000
 20
      -16.250000
 30
        0.000000
 11
       -2.000000
 21
      -19.850000
 31
        0.000000
  0
LINE
  8
1
 10
       -1.655403
 20
      -16.250000
 30
        0.000000
 11
       -1.655403
 21
      -19.850000
 31
        0.000000
  0
LINE
  8
1
 10
       -1.210372
 20
      -16.250000
 30
        0.000000
 11
       -1.210372
 21
      -19.850000
 31
        0.000000
  0
LINE
  8
1
 10
       -0.638617
 20
      -16.250000
 30
        0.000000
 11
       -0.638617
 21
      -19.850000
 31
        0.000000
  0
LINE
  8
1
 10
        1.210373
 20
      -16.250000
 30
        0.000000
 11
        1.210373
 21
      -19.850000
 31
        0.000000
  0
LINE
  8
1
 10
        1.927117
 20
      -16.250000
 30
        0.000000
 11
        1.927117
 21
      -19.850000
 31
        0.000000
  0
LINE
  8
1
 10
        1.655404
 20
      -16.250000
 30
        0.000000
 11
        1.655404
 21
      -19.850000
 31
        0.000000
  0
LINE
  8
1
 10
        0.638618
 20
      -19.850000
 30
        0.000000
 11
        0.638618
 21
      -16.250000
 31
        0.000000
  0
LINE
  8
1
 10
        2.000000
 20
      -16.250000
 30
        0.000000
 11
        2.000000
 21
      -19.850000
 31
        0.000000
  0
LINE
  8
1
  6
CENTER
 10
        0.000000
 20
      -21.998453
 30
        0.000000
 11
        0.000000
 21
       20.995410
 31
        0.000000
  0
LINE
  8
1
 10
        0.000000
 20
      -19.850000
 30
        0.000000
 11
        0.000000
 21
      -16.250000
 31
        0.000000
  0
LINE
  8
1
 10
        1.800000
 20
       19.500000
 30
        0.000000
 11
        2.000000
 21
       19.300000
 31
        0.000000
  0
LINE
  8
1
 10
        0.000000
 20
       15.700000
 30
        0.000000
 11
        0.000000
 21
       19.300000
 31
        0.000000
  0
LINE
  8
1
 10
        1.655404
 20
       15.700000
 30
        0.000000
 11
        1.655404
 21
       19.300000
 31
        0.000000
  0
LINE
  8
1
 10
        1.210373
 20
       15.700000
 30
        0.000000
 11
        1.210373
 21
       19.300000
 31
        0.000000
  0
LINE
  8
1
 10
        0.638618
 20
       15.700000
 30
        0.000000
 11
        0.638618
 21
       19.300000
 31
        0.000000
  0
LINE
  8
1
 10
        1.927117
 20
       15.700000
 30
        0.000000
 11
        1.927117
 21
       19.300000
 31
        0.000000
  0
LINE
  8
1
 10
        2.000000
 20
       15.700000
 30
        0.000000
 11
        2.000000
 21
       19.300000
 31
        0.000000
  0
LINE
  8
1
 10
       -2.000000
 20
       19.300000
 30
        0.000000
 11
       -1.800000
 21
       19.500000
 31
        0.000000
  0
LINE
  8
1
 10
       -1.210372
 20
       15.700000
 30
        0.000000
 11
       -1.210372
 21
       19.300000
 31
        0.000000
  0
LINE
  8
1
 10
       -1.927116
 20
       15.700000
 30
        0.000000
 11
       -1.927116
 21
       19.300000
 31
        0.000000
  0
LINE
  8
1
 10
       -1.655403
 20
       15.700000
 30
        0.000000
 11
       -1.655403
 21
       19.300000
 31
        0.000000
  0
LINE
  8
1
 10
       -0.638617
 20
       19.300000
 30
        0.000000
 11
       -0.638617
 21
       15.700000
 31
        0.000000
  0
LINE
  8
1
 10
       -2.000000
 20
       15.700000
 30
        0.000000
 11
       -2.000000
 21
       19.300000
 31
        0.000000
  0
LINE
  8
1
 10
       -2.000000
 20
       19.300000
 30
        0.000000
 11
        2.000000
 21
       19.300000
 31
        0.000000
  0
LINE
  8
1
 10
       -1.800000
 20
       19.500000
 30
        0.000000
 11
        1.800000
 21
       19.500000
 31
        0.000000
  0
TEXT
  8
0
 10
       17.409236
 20
       27.982058
 30
        0.000000
 40
        2.000000
  1
ＩＶ－１Ａ０１０２
 50
        0.000000
 41
        1.000000
 51
        0.000000
  7
BIGFONT
  0
CIRCLE
  8
3
 10
        0.000000
 20
        0.000000
 30
        0.000000
 40
        8.000000
  0
LINE
  8
1
 10
       -0.850000
 20
       14.975897
 30
        0.000000
 11
       -0.850000
 21
       15.000000
 31
        0.000000
  0
LINE
  8
1
 10
       -0.675000
 20
       14.984805
 30
        0.000000
 11
       -0.675000
 21
       15.000000
 31
        0.000000
  0
LINE
  8
1
 10
        0.675000
 20
       14.984805
 30
        0.000000
 11
        0.675000
 21
       15.000000
 31
        0.000000
  0
LINE
  8
1
 10
        0.850000
 20
       14.975897
 30
        0.000000
 11
        0.850000
 21
       15.000000
 31
        0.000000
  0
LINE
  8
1
 10
       -1.800000
 20
       15.500000
 30
        0.000000
 11
        1.800000
 21
       15.500000
 31
        0.000000
  0
LINE
  8
1
 10
       -2.000000
 20
       15.700000
 30
        0.000000
 11
        2.000000
 21
       15.700000
 31
        0.000000
  0
LINE
  8
1
 10
       -0.675000
 20
       15.000000
 30
        0.000000
 11
       -0.675000
 21
       15.500000
 31
        0.000000
  0
LINE
  8
1
 10
       -1.800000
 20
       15.500000
 30
        0.000000
 11
       -2.000000
 21
       15.700000
 31
        0.000000
  0
LINE
  8
1
 10
        0.675000
 20
       15.000000
 30
        0.000000
 11
        0.675000
 21
       15.500000
 31
        0.000000
  0
LINE
  8
1
 10
        2.000000
 20
       15.700000
 30
        0.000000
 11
        1.800000
 21
       15.500000
 31
        0.000000
  0
LINE
  8
1
 10
       -0.850000
 20
       15.000000
 30
        0.000000
 11
        0.850000
 21
       15.000000
 31
        0.000000
  0
LINE
  8
1
 10
       -0.850000
 20
      -14.975897
 30
        0.000000
 11
       -0.850000
 21
      -15.550000
 31
        0.000000
  0
LINE
  8
1
 10
       -0.675000
 20
      -14.984805
 30
        0.000000
 11
       -0.675000
 21
      -15.550000
 31
        0.000000
  0
LINE
  8
1
 10
        0.675000
 20
      -14.984805
 30
        0.000000
 11
        0.675000
 21
      -15.550000
 31
        0.000000
  0
LINE
  8
1
 10
        0.850000
 20
      -14.975897
 30
        0.000000
 11
        0.850000
 21
      -15.550000
 31
        0.000000
  0
LINE
  8
1
 10
        1.800000
 20
      -16.050000
 30
        0.000000
 11
       -1.800000
 21
      -16.050000
 31
        0.000000
  0
LINE
  8
1
 10
        0.850000
 20
      -15.550000
 30
        0.000000
 11
       -0.850000
 21
      -15.550000
 31
        0.000000
  0
LINE
  8
1
 10
        2.000000
 20
      -16.250000
 30
        0.000000
 11
       -2.000000
 21
      -16.250000
 31
        0.000000
  0
LINE
  8
1
 10
        0.675000
 20
      -15.550000
 30
        0.000000
 11
        0.675000
 21
      -16.050000
 31
        0.000000
  0
LINE
  8
1
 10
       -0.675000
 20
      -15.550000
 30
        0.000000
 11
       -0.675000
 21
      -16.050000
 31
        0.000000
  0
LINE
  8
1
 10
       -2.000000
 20
      -16.250000
 30
        0.000000
 11
       -1.800000
 21
      -16.050000
 31
        0.000000
  0
LINE
  8
1
 10
        1.800000
 20
      -16.050000
 30
        0.000000
 11
        2.000000
 21
      -16.250000
 31
        0.000000
  0
CIRCLE
  8
2
 10
        0.000000
 20
        0.000000
 30
        0.000000
 40
       14.000000
  0
CIRCLE
  8
2
 10
        0.000000
 20
        0.000000
 30
        0.000000
 40
       15.000000
  0
LINE
  8
1
 10
       54.351823
 20
       14.200000
 30
        0.000000
 11
       54.351823
 21
      -14.200000
 31
        0.000000
  0
LINE
  8
1
 10
       36.051823
 20
       14.000000
 30
        0.000000
 11
       36.051823
 21
      -14.000000
 31
        0.000000
  0
LINE
  8
1
 10
       49.551823
 20
       15.000000
 30
        0.000000
 11
       49.551823
 21
      -15.000000
 31
        0.000000
  0
LINE
  8
1
 10
       43.351823
 20
       14.000000
 30
        0.000000
 11
       43.351823
 21
      -14.000000
 31
        0.000000
  0
LINE
  8
1
 10
       44.351823
 20
       15.000000
 30
        0.000000
 11
       44.351823
 21
      -15.000000
 31
        0.000000
  0
LINE
  8
1
 10
       49.851823
 20
       14.650000
 30
        0.000000
 11
       49.851823
 21
      -14.650000
 31
        0.000000
  0
LINE
  8
1
 10
       36.051823
 20
      -14.000000
 30
        0.000000
 11
       43.351823
 21
      -14.000000
 31
        0.000000
  0
LINE
  8
1
 10
       35.851823
 20
      -13.800000
 30
        0.000000
 11
       36.051823
 21
      -14.000000
 31
        0.000000
  0
LINE
  8
1
 10
       49.851823
 20
      -14.650000
 30
        0.000000
 11
       54.251823
 21
      -14.650000
 31
        0.000000
  0
LINE
  8
1
 10
       44.351823
 20
      -15.000000
 30
        0.000000
 11
       49.551823
 21
      -15.000000
 31
        0.000000
  0
LINE
  8
1
 10
       44.351823
 20
      -14.791054
 30
        0.000000
 11
       49.551823
 21
      -14.791054
 31
        0.000000
  0
LINE
  8
1
 10
       44.351823
 20
      -14.591380
 30
        0.000000
 11
       49.551823
 21
      -14.591380
 31
        0.000000
  0
LINE
  8
1
 10
       44.351823
 20
      -14.326538
 30
        0.000000
 11
       49.551823
 21
      -14.326538
 31
        0.000000
  0
LINE
  8
1
 10
       44.351823
 20
      -13.997709
 30
        0.000000
 11
       49.551823
 21
      -13.997709
 31
        0.000000
  0
LINE
  8
1
 10
       44.351823
 20
      -13.606364
 30
        0.000000
 11
       49.551823
 21
      -13.606364
 31
        0.000000
  0
LINE
  8
1
 10
       44.351823
 20
      -13.154249
 30
        0.000000
 11
       49.551823
 21
      -13.154249
 31
        0.000000
  0
LINE
  8
1
 10
       44.351823
 20
      -12.643384
 30
        0.000000
 11
       49.551823
 21
      -12.643384
 31
        0.000000
  0
LINE
  8
1
 10
       44.351823
 20
      -12.076051
 30
        0.000000
 11
       49.551823
 21
      -12.076051
 31
        0.000000
  0
LINE
  8
1
 10
       43.351823
 20
      -14.000000
 30
        0.000000
 11
       44.351823
 21
      -15.000000
 31
        0.000000
  0
LINE
  8
1
 10
       49.551823
 20
      -15.000000
 30
        0.000000
 11
       49.851823
 21
      -14.700000
 31
        0.000000
  0
LINE
  8
1
 10
       49.851823
 20
      -14.700000
 30
        0.000000
 11
       49.851823
 21
      -14.650000
 31
        0.000000
  0
LINE
  8
1
 10
       54.351823
 20
      -14.550000
 30
        0.000000
 11
       54.351823
 21
      -14.200000
 31
        0.000000
  0
LINE
  8
1
 10
       54.251823
 20
      -14.650000
 30
        0.000000
 11
       54.351823
 21
      -14.550000
 31
        0.000000
  0
LINE
  8
1
 10
       36.051823
 20
       14.000000
 30
        0.000000
 11
       43.351823
 21
       14.000000
 31
        0.000000
  0
LINE
  8
1
 10
       35.851823
 20
       13.800000
 30
        0.000000
 11
       36.051823
 21
       14.000000
 31
        0.000000
  0
LINE
  8
1
 10
       44.351823
 20
      -11.454783
 30
        0.000000
 11
       49.551823
 21
      -11.454783
 31
        0.000000
  0
LINE
  8
1
 10
       44.351823
 20
      -10.782355
 30
        0.000000
 11
       49.551823
 21
      -10.782355
 31
        0.000000
  0
LINE
  8
1
 10
       44.351823
 20
      -10.061771
 30
        0.000000
 11
       49.551823
 21
      -10.061771
 31
        0.000000
  0
LINE
  8
1
 10
       44.351823
 20
       -9.296248
 30
        0.000000
 11
       49.551823
 21
       -9.296248
 31
        0.000000
  0
LINE
  8
1
 10
       44.351823
 20
       -8.489207
 30
        0.000000
 11
       49.551823
 21
       -8.489207
 31
        0.000000
  0
LINE
  8
1
 10
       44.351823
 20
       -7.644250
 30
        0.000000
 11
       49.551823
 21
       -7.644250
 31
        0.000000
  0
LINE
  8
1
 10
       44.351823
 20
       -6.765152
 30
        0.000000
 11
       49.551823
 21
       -6.765152
 31
        0.000000
  0
LINE
  8
1
 10
       44.351823
 20
       -5.855839
 30
        0.000000
 11
       49.551823
 21
       -5.855839
 31
        0.000000
  0
LINE
  8
1
 10
       44.351823
 20
       -4.920373
 30
        0.000000
 11
       49.551823
 21
       -4.920373
 31
        0.000000
  0
LINE
  8
1
 10
       44.351823
 20
       -3.962931
 30
        0.000000
 11
       49.551823
 21
       -3.962931
 31
        0.000000
  0
LINE
  8
1
 10
       44.351823
 20
       -2.987790
 30
        0.000000
 11
       49.551823
 21
       -2.987790
 31
        0.000000
  0
LINE
  8
1
 10
       44.351823
 20
       -1.999304
 30
        0.000000
 11
       49.551823
 21
       -1.999304
 31
        0.000000
  0
LINE
  8
1
 10
       44.351823
 20
       -1.001890
 30
        0.000000
 11
       49.551823
 21
       -1.001890
 31
        0.000000
  0
LINE
  8
1
 10
       44.351823
 20
        1.001889
 30
        0.000000
 11
       49.551823
 21
        1.001889
 31
        0.000000
  0
LINE
  8
1
 10
       44.351823
 20
        1.999304
 30
        0.000000
 11
       49.551823
 21
        1.999304
 31
        0.000000
  0
LINE
  8
1
 10
       44.351823
 20
        2.987790
 30
        0.000000
 11
       49.551823
 21
        2.987790
 31
        0.000000
  0
LINE
  8
1
 10
       44.351823
 20
        3.962931
 30
        0.000000
 11
       49.551823
 21
        3.962931
 31
        0.000000
  0
LINE
  8
1
 10
       44.351823
 20
        4.920373
 30
        0.000000
 11
       49.551823
 21
        4.920373
 31
        0.000000
  0
LINE
  8
1
 10
       44.351823
 20
        5.855839
 30
        0.000000
 11
       49.551823
 21
        5.855839
 31
        0.000000
  0
LINE
  8
1
 10
       44.351823
 20
        6.765152
 30
        0.000000
 11
       49.551823
 21
        6.765152
 31
        0.000000
  0
LINE
  8
1
 10
       44.351823
 20
        7.644250
 30
        0.000000
 11
       49.551823
 21
        7.644250
 31
        0.000000
  0
LINE
  8
1
 10
       44.351823
 20
        8.489206
 30
        0.000000
 11
       49.551823
 21
        8.489206
 31
        0.000000
  0
LINE
  8
1
 10
       44.351823
 20
        9.296248
 30
        0.000000
 11
       49.551823
 21
        9.296248
 31
        0.000000
  0
LINE
  8
1
 10
       44.351823
 20
       10.061771
 30
        0.000000
 11
       49.551823
 21
       10.061771
 31
        0.000000
  0
LINE
  8
1
 10
       44.351823
 20
       10.782355
 30
        0.000000
 11
       49.551823
 21
       10.782355
 31
        0.000000
  0
LINE
  8
1
 10
       49.851823
 20
       14.650000
 30
        0.000000
 11
       54.251823
 21
       14.650000
 31
        0.000000
  0
LINE
  8
1
 10
       44.351823
 20
       15.000000
 30
        0.000000
 11
       49.551823
 21
       15.000000
 31
        0.000000
  0
LINE
  8
1
 10
       44.351823
 20
       11.454783
 30
        0.000000
 11
       49.551823
 21
       11.454783
 31
        0.000000
  0
LINE
  8
1
 10
       44.351823
 20
       12.076051
 30
        0.000000
 11
       49.551823
 21
       12.076051
 31
        0.000000
  0
LINE
  8
1
 10
       44.351823
 20
       12.643384
 30
        0.000000
 11
       49.551823
 21
       12.643384
 31
        0.000000
  0
LINE
  8
1
 10
       44.351823
 20
       13.154249
 30
        0.000000
 11
       49.551823
 21
       13.154249
 31
        0.000000
  0
LINE
  8
1
 10
       44.351823
 20
       13.606364
 30
        0.000000
 11
       49.551823
 21
       13.606364
 31
        0.000000
  0
LINE
  8
1
 10
       44.351823
 20
       13.997709
 30
        0.000000
 11
       49.551823
 21
       13.997709
 31
        0.000000
  0
LINE
  8
1
 10
       44.351823
 20
       14.326537
 30
        0.000000
 11
       49.551823
 21
       14.326537
 31
        0.000000
  0
LINE
  8
1
 10
       44.351823
 20
       14.591380
 30
        0.000000
 11
       49.551823
 21
       14.591380
 31
        0.000000
  0
LINE
  8
1
 10
       44.351823
 20
       14.791054
 30
        0.000000
 11
       49.551823
 21
       14.791054
 31
        0.000000
  0
LINE
  8
1
 10
       43.351823
 20
       14.000000
 30
        0.000000
 11
       44.351823
 21
       15.000000
 31
        0.000000
  0
LINE
  8
1
 10
       49.551823
 20
       15.000000
 30
        0.000000
 11
       49.851823
 21
       14.700000
 31
        0.000000
  0
LINE
  8
1
 10
       49.851823
 20
       14.700000
 30
        0.000000
 11
       49.851823
 21
       14.650000
 31
        0.000000
  0
LINE
  8
1
 10
       54.351823
 20
       14.550000
 30
        0.000000
 11
       54.351823
 21
       14.200000
 31
        0.000000
  0
LINE
  8
1
 10
       54.251823
 20
       14.650000
 30
        0.000000
 11
       54.351823
 21
       14.550000
 31
        0.000000
  0
CIRCLE
  8
0
 62
  3
 10
        0.000000
 20
        0.000000
 30
        0.000000
 40
       12.750000
  0
CIRCLE
  8
0
 62
  3
 10
        0.000000
 20
        0.000000
 30
        0.000000
 40
       12.500000
  0
LINE
  8
1
  6
CENTER
 10
      -17.980406
 20
        0.000000
 30
        0.000000
 11
       80.599160
 21
        0.000000
 31
        0.000000
  0
DIMENSION
  8
0
 62
  3
  2
BLK0001
 10
       35.851822
 20
      -28.648966
 11
       48.101837
 21
      -28.148966
 13
       35.851822
 23
      -13.800000
 14
       70.351852
 24
      -14.200000
 50
        0.0
 70
  0
  0
DIMENSION
  8
0
 62
  3
  2
BLK0002
 10
      -15.000000
 20
      -28.648966
 11
       -3.750000
 21
      -28.148966
 13
      -15.000000
 23
        0.000000
 14
       15.000000
 24
        0.000000
 50
        0.0
 70
  0
  0
ENDSEC
  0
EOF
