  0
SECTION
  2
HEADER
  9
$ACADVER
  1
AC1006
  9
$INSBASE
 10
0.0
 20
0.0
 30
0.0
  9
$EXTMIN
 10
      -20.527798
 20
      -20.527798
  9
$EXTMAX
 10
       86.256248
 20
       29.712500
  9
$LIMMIN
 10
      -20.527798
 20
      -20.527798
  9
$LIMMAX
 10
       86.256248
 20
       29.712500
  9
$VIEWCTR
 10
       32.864227
 20
       32.864227
  9
$ORTHOMODE
 70
     0
  9
$ANGBASE
 50
0.0
  9
$ANGDIR
 70
     0
  9
$SPLINETYPE
 70
     6
  9
$SPLINESEGS
 70
     8
9
$DIMASZ
 40
        2.500000
9
$DIMEXE
 40
        0.500000
9
$DIMEXO
 40
        1.000000
9
$DIMTXT
 40
        2.500000
9
$DIMGAP
 40
        0.500000
9
$DIMTAD
 70
1
9
$DIMTIH
 70
0
9
$DIMTOH
 70
0
  0
ENDSEC
  0
SECTION
  2
TABLES
  0
TABLE
  2
LTYPE
 70
     5
  0
LTYPE
  2
CONTINUOUS
 70
    64
  3
SOLID LINE
 72
    65
 73
     0
 40
0.0
  0
LTYPE
  2
DASHED
 70
    64
  3
-- -- -- -- -- --
 72
    65
 73
     2
 40
  0.75  
 49
  0.50  
 49
 -0.25  
  0
LTYPE
  2
DOT
 70
    64
  3
....................
 72
    65
 73
     2
 40
  0.25  
 49
  0.02  
 49
 -0.23  
  0
LTYPE
  2
CENTER
 70
    64
  3
-- . -- . -- . -- .
 72
    65
 73
    4
 40
  2.00  
 49
  1.25  
 49
 -0.25  
 49
  0.25  
 49
 -0.25  
  0
LTYPE
  2
PHANTOM
 70
    64
  3
-- .. -- .. -- ..
 72
    65
 73
    6
 40
  2.50  
 49
  1.25  
 49
 -0.25  
 49
  0.25  
 49
 -0.25  
 49
  0.25  
 49
 -0.25  
  0
ENDTAB
  0
TABLE
  2
LAYER
 70
     2
  0
LAYER
  2
0
 70
    64
 62
     5
  6
CONTINUOUS
  0
LAYER
  2
1
 70
    64
 62
     3
  6
CONTINUOUS
  0
ENDTAB
  0
TABLE
  2
STYLE
 70
     2
  0
STYLE
  2
STANDARD
 70
    64
 40
0.0
 41
1.0
 50
0.0
 71
     0
 42
5.0
  3
ROMANS
  4
BIGFONT
  0
STYLE
  2
BIGFONT
 70
    64
 40
0.0
 41
1.0
 50
0.0
 71
     0
 42
5.0
  3
ROMANS
  4
BIGFONT
  0
ENDTAB
  0
TABLE
  2
VIEW
 70
     0
  0
ENDTAB
  0
TABLE
  2
UCS
 70
     0
  0
ENDTAB
  0
TABLE
  2
DWGMGR
 70
     0
  0
ENDTAB
  0
ENDSEC
  0
SECTION
  2
BLOCKS
  0
BLOCK
  8
0
  2
BLK0001
 70
    64
 10
        0.000000
 20
        0.000000
  0
TEXT
  8
0
 10
       -3.627281
 20
      -24.120609
 30
        0.000000
 40
        2.500000
  1
φ３４
 50
        0.000000
 41
        1.000000
 51
        0.000000
  7
BIGFONT
  0
LINE
  8
0
 10
      -17.000000
 20
       -1.000000
 30
        0.000000
 11
      -17.000000
 21
      -25.120609
 31
        0.000000
  0
LINE
  8
0
 10
       17.000000
 20
       -1.000000
 30
        0.000000
 11
       17.000000
 21
      -25.120609
 31
        0.000000
  0
LINE
  8
0
 10
      -14.500000
 20
      -23.966110
 30
        0.000000
 11
      -17.000000
 21
      -24.620609
 31
        0.000000
  0
LINE
  8
0
 10
      -17.000000
 20
      -24.620609
 30
        0.000000
 11
      -14.500000
 21
      -25.275108
 31
        0.000000
  0
LINE
  8
0
 10
       14.500000
 20
      -25.275108
 30
        0.000000
 11
       17.000000
 21
      -24.620609
 31
        0.000000
  0
LINE
  8
0
 10
       17.000000
 20
      -24.620609
 30
        0.000000
 11
       14.500000
 21
      -23.966110
 31
        0.000000
  0
LINE
  8
0
 10
      -17.000000
 20
      -24.620609
 30
        0.000000
 11
       17.000000
 21
      -24.620609
 31
        0.000000
  0
ENDBLK
  0
BLOCK
  8
0
  2
BLK0002
 70
    64
 10
        0.000000
 20
        0.000000
  0
TEXT
  8
0
 10
       53.603466
 20
      -26.380058
 30
        0.000000
 40
        2.500000
  1
３７
 50
        0.000000
 41
        1.000000
 51
        0.000000
  7
BIGFONT
  0
LINE
  8
0
 10
       40.473999
 20
      -14.950000
 30
        0.000000
 11
       40.473999
 21
      -27.380058
 31
        0.000000
  0
LINE
  8
0
 10
       77.473999
 20
      -15.400000
 30
        0.000000
 11
       77.473999
 21
      -27.380058
 31
        0.000000
  0
LINE
  8
0
 10
       42.973999
 20
      -26.225559
 30
        0.000000
 11
       40.473999
 21
      -26.880058
 31
        0.000000
  0
LINE
  8
0
 10
       40.473999
 20
      -26.880058
 30
        0.000000
 11
       42.973999
 21
      -27.534557
 31
        0.000000
  0
LINE
  8
0
 10
       74.973999
 20
      -27.534557
 30
        0.000000
 11
       77.473999
 21
      -26.880058
 31
        0.000000
  0
LINE
  8
0
 10
       77.473999
 20
      -26.880058
 30
        0.000000
 11
       74.973999
 21
      -26.225559
 31
        0.000000
  0
LINE
  8
0
 10
       40.473999
 20
      -26.880058
 30
        0.000000
 11
       77.473999
 21
      -26.880058
 31
        0.000000
  0
ENDBLK
  0
ENDSEC
  0
SECTION
  2
ENTITIES
  0
DIMENSION
  8
0
 62
  3
  2
BLK0001
 10
      -17.000000
 20
      -24.620609
 11
       -3.627281
 21
      -24.120609
 13
      -17.000000
 23
        0.000000
 14
       17.000000
 24
        0.000000
 50
        0.0
 70
  0
  0
DIMENSION
  8
0
 62
  3
  2
BLK0002
 10
       40.473999
 20
      -26.880058
 11
       53.603466
 21
      -26.380058
 13
       40.473999
 23
      -13.950000
 14
       77.473999
 24
      -14.400000
 50
        0.0
 70
  0
  0
CIRCLE
  8
1
 10
        0.000000
 20
        0.000000
 30
        0.000000
 40
       17.000000
  0
CIRCLE
  8
1
 10
        0.000000
 20
        0.000000
 30
        0.000000
 40
       11.172094
  0
CIRCLE
  8
1
 10
        0.000000
 20
        0.000000
 30
        0.000000
 40
       13.250000
  0
CIRCLE
  8
1
 10
        0.000000
 20
        0.000000
 30
        0.000000
 40
       14.250000
  0
CIRCLE
  8
1
 10
        0.000000
 20
        0.000000
 30
        0.000000
 40
       15.250000
  0
CIRCLE
  8
1
 10
        0.000000
 20
        0.000000
 30
        0.000000
 40
       13.500000
  0
LINE
  8
1
  6
CENTER
 10
      -19.800647
 20
        0.000000
 30
        0.000000
 11
       19.458124
 21
        0.000000
 31
        0.000000
  0
LINE
  8
1
  6
CENTER
 10
        0.000000
 20
       23.144008
 30
        0.000000
 11
        0.000000
 21
      -20.527797
 31
        0.000000
  0
LINE
  8
1
 10
       43.974000
 20
       14.250000
 30
        0.000000
 11
       44.974000
 21
       15.250000
 31
        0.000000
  0
LINE
  8
1
 10
       40.774000
 20
       14.250000
 30
        0.000000
 11
       43.974000
 21
       14.250000
 31
        0.000000
  0
LINE
  8
1
 10
       40.474000
 20
       13.950000
 30
        0.000000
 11
       40.774000
 21
       14.250000
 31
        0.000000
  0
LINE
  8
1
 10
       78.474000
 20
      -12.200000
 30
        0.000000
 11
       81.474000
 21
      -12.200000
 31
        0.000000
  0
LINE
  8
1
 10
       78.474000
 20
       12.200000
 30
        0.000000
 11
       81.474000
 21
       12.200000
 31
        0.000000
  0
LINE
  8
1
 10
       -1.700000
 20
       20.250000
 30
        0.000000
 11
       -2.000000
 21
       19.950000
 31
        0.000000
  0
LINE
  8
1
 10
       -2.000000
 20
       19.950000
 30
        0.000000
 11
       -2.000000
 21
       18.050000
 31
        0.000000
  0
LINE
  8
1
 10
       -0.765367
 20
       19.950000
 30
        0.000000
 11
       -0.765367
 21
       18.050000
 31
        0.000000
  0
LINE
  8
1
 10
       -1.414214
 20
       18.050000
 30
        0.000000
 11
       -1.414214
 21
       19.950000
 31
        0.000000
  0
LINE
  8
1
 10
       -1.847759
 20
       19.950000
 30
        0.000000
 11
       -1.847759
 21
       18.050000
 31
        0.000000
  0
LINE
  8
1
 10
       -2.000000
 20
       19.950000
 30
        0.000000
 11
        2.000000
 21
       19.950000
 31
        0.000000
  0
LINE
  8
1
 10
        1.700000
 20
       20.250000
 30
        0.000000
 11
       -1.700000
 21
       20.250000
 31
        0.000000
  0
LINE
  8
1
 10
        2.000000
 20
       18.050000
 30
        0.000000
 11
        2.000000
 21
       19.950000
 31
        0.000000
  0
LINE
  8
1
 10
        2.000000
 20
       19.950000
 30
        0.000000
 11
        1.700000
 21
       20.250000
 31
        0.000000
  0
LINE
  8
1
 10
        1.847759
 20
       19.950000
 30
        0.000000
 11
        1.847759
 21
       18.050000
 31
        0.000000
  0
LINE
  8
1
 10
        1.414214
 20
       18.050000
 30
        0.000000
 11
        1.414214
 21
       19.950000
 31
        0.000000
  0
LINE
  8
1
 10
        0.765367
 20
       19.950000
 30
        0.000000
 11
        0.765367
 21
       18.050000
 31
        0.000000
  0
LINE
  8
1
 10
       54.321759
 20
       18.450000
 30
        0.000000
 11
       54.321759
 21
       16.550000
 31
        0.000000
  0
LINE
  8
1
 10
       53.888214
 20
       16.550000
 30
        0.000000
 11
       53.888214
 21
       18.450000
 31
        0.000000
  0
LINE
  8
1
 10
       53.239367
 20
       18.450000
 30
        0.000000
 11
       53.239367
 21
       16.550000
 31
        0.000000
  0
LINE
  8
1
 10
       51.708633
 20
       18.450000
 30
        0.000000
 11
       51.708633
 21
       16.550000
 31
        0.000000
  0
LINE
  8
1
 10
       51.059786
 20
       16.550000
 30
        0.000000
 11
       51.059786
 21
       18.450000
 31
        0.000000
  0
LINE
  8
1
 10
       50.626241
 20
       18.450000
 30
        0.000000
 11
       50.626241
 21
       16.550000
 31
        0.000000
  0
LINE
  8
1
 10
       52.474000
 20
       18.450000
 30
        0.000000
 11
       52.474000
 21
       16.550000
 31
        0.000000
  0
LINE
  8
1
 10
       54.474000
 20
       16.550000
 30
        0.000000
 11
       54.474000
 21
       18.450000
 31
        0.000000
  0
LINE
  8
1
 10
       54.474000
 20
       18.450000
 30
        0.000000
 11
       54.174000
 21
       18.750000
 31
        0.000000
  0
LINE
  8
1
 10
       54.174000
 20
       18.750000
 30
        0.000000
 11
       50.774000
 21
       18.750000
 31
        0.000000
  0
LINE
  8
1
 10
       50.774000
 20
       18.750000
 30
        0.000000
 11
       50.474000
 21
       18.450000
 31
        0.000000
  0
LINE
  8
1
 10
       50.474000
 20
       18.450000
 30
        0.000000
 11
       50.474000
 21
       16.550000
 31
        0.000000
  0
LINE
  8
1
 10
       50.474000
 20
       18.450000
 30
        0.000000
 11
       54.474000
 21
       18.450000
 31
        0.000000
  0
LINE
  8
1
 10
       62.974000
 20
       18.050000
 30
        0.000000
 11
       62.974000
 21
       19.950000
 31
        0.000000
  0
LINE
  8
1
 10
       62.974000
 20
       19.950000
 30
        0.000000
 11
       62.674000
 21
       20.250000
 31
        0.000000
  0
LINE
  8
1
 10
       62.674000
 20
       20.250000
 30
        0.000000
 11
       59.274000
 21
       20.250000
 31
        0.000000
  0
LINE
  8
1
 10
       59.274000
 20
       20.250000
 30
        0.000000
 11
       58.974000
 21
       19.950000
 31
        0.000000
  0
LINE
  8
1
 10
       58.974000
 20
       19.950000
 30
        0.000000
 11
       58.974000
 21
       18.050000
 31
        0.000000
  0
LINE
  8
1
 10
       58.974000
 20
       19.950000
 30
        0.000000
 11
       62.974000
 21
       19.950000
 31
        0.000000
  0
LINE
  8
1
 10
       62.821759
 20
       19.950000
 30
        0.000000
 11
       62.821759
 21
       18.050000
 31
        0.000000
  0
LINE
  8
1
 10
       62.388214
 20
       18.050000
 30
        0.000000
 11
       62.388214
 21
       19.950000
 31
        0.000000
  0
LINE
  8
1
 10
       61.739367
 20
       19.950000
 30
        0.000000
 11
       61.739367
 21
       18.050000
 31
        0.000000
  0
LINE
  8
1
 10
       60.208633
 20
       19.950000
 30
        0.000000
 11
       60.208633
 21
       18.050000
 31
        0.000000
  0
LINE
  8
1
 10
       59.559786
 20
       18.050000
 30
        0.000000
 11
       59.559786
 21
       19.950000
 31
        0.000000
  0
LINE
  8
1
 10
       59.126241
 20
       19.950000
 30
        0.000000
 11
       59.126241
 21
       18.050000
 31
        0.000000
  0
LINE
  8
1
 10
       60.974000
 20
       18.050000
 30
        0.000000
 11
       60.974000
 21
       19.950000
 31
        0.000000
  0
CIRCLE
  8
1
 10
        0.000000
 20
        0.000000
 30
        0.000000
 40
        8.600000
  0
LINE
  8
1
 10
       -1.700000
 20
       17.750000
 30
        0.000000
 11
        1.700000
 21
       17.750000
 31
        0.000000
  0
LINE
  8
1
 10
       -1.000000
 20
       16.970563
 30
        0.000000
 11
       -1.000000
 21
       17.750000
 31
        0.000000
  0
LINE
  8
1
 10
        1.000000
 20
       16.970563
 30
        0.000000
 11
        1.000000
 21
       17.750000
 31
        0.000000
  0
LINE
  8
1
 10
       -2.000000
 20
       18.050000
 30
        0.000000
 11
        2.000000
 21
       18.050000
 31
        0.000000
  0
LINE
  8
1
 10
       -2.000000
 20
       18.050000
 30
        0.000000
 11
       -1.700000
 21
       17.750000
 31
        0.000000
  0
LINE
  8
1
 10
        1.700000
 20
       17.750000
 30
        0.000000
 11
        2.000000
 21
       18.050000
 31
        0.000000
  0
LINE
  8
1
 10
       40.774000
 20
       14.250000
 30
        0.000000
 11
       40.774000
 21
      -14.250000
 31
        0.000000
  0
LINE
  8
1
 10
       43.974000
 20
       14.250000
 30
        0.000000
 11
       43.974000
 21
      -14.250000
 31
        0.000000
  0
LINE
  8
1
 10
       44.974000
 20
       15.250000
 30
        0.000000
 11
       44.974000
 21
      -15.250000
 31
        0.000000
  0
LINE
  8
1
 10
       47.974000
 20
       15.250000
 30
        0.000000
 11
       47.974000
 21
      -15.250000
 31
        0.000000
  0
LINE
  8
1
 10
       48.974000
 20
       14.250000
 30
        0.000000
 11
       48.974000
 21
      -14.250000
 31
        0.000000
  0
LINE
  8
1
 10
       49.974000
 20
       15.250000
 30
        0.000000
 11
       49.974000
 21
      -15.250000
 31
        0.000000
  0
LINE
  8
1
 10
       54.174000
 20
       15.250000
 30
        0.000000
 11
       54.174000
 21
      -15.250000
 31
        0.000000
  0
LINE
  8
1
 10
       55.274000
 20
       15.250000
 30
        0.000000
 11
       55.274000
 21
      -15.250000
 31
        0.000000
  0
LINE
  8
1
 10
       57.963637
 20
       15.250000
 30
        0.000000
 11
       57.963637
 21
      -15.250000
 31
        0.000000
  0
LINE
  8
1
 10
       58.974000
 20
       17.000000
 30
        0.000000
 11
       58.974000
 21
      -17.000000
 31
        0.000000
  0
LINE
  8
1
 10
       66.224000
 20
       17.000000
 30
        0.000000
 11
       66.224000
 21
      -17.000000
 31
        0.000000
  0
LINE
  8
1
 10
       66.974000
 20
       16.250000
 30
        0.000000
 11
       66.974000
 21
      -16.250000
 31
        0.000000
  0
LINE
  8
1
 10
       75.724000
 20
       16.250000
 30
        0.000000
 11
       75.724000
 21
      -16.250000
 31
        0.000000
  0
LINE
  8
1
 10
       76.974000
 20
       14.900000
 30
        0.000000
 11
       76.974000
 21
      -14.900000
 31
        0.000000
  0
LINE
  8
1
 10
       78.474000
 20
       12.200000
 30
        0.000000
 11
       78.474000
 21
      -12.200000
 31
        0.000000
  0
LINE
  8
1
 10
       78.974000
 20
       12.700000
 30
        0.000000
 11
       78.974000
 21
      -12.700000
 31
        0.000000
  0
LINE
  8
1
 10
       80.974000
 20
       12.700000
 30
        0.000000
 11
       80.974000
 21
      -12.700000
 31
        0.000000
  0
LINE
  8
1
 10
       81.474000
 20
       12.200000
 30
        0.000000
 11
       81.474000
 21
      -12.200000
 31
        0.000000
  0
LINE
  8
1
 10
       81.474000
 20
      -12.200000
 30
        0.000000
 11
       80.974000
 21
      -12.700000
 31
        0.000000
  0
LINE
  8
1
 10
       80.974000
 20
      -12.700000
 30
        0.000000
 11
       78.974000
 21
      -12.700000
 31
        0.000000
  0
LINE
  8
1
 10
       78.974000
 20
      -12.700000
 30
        0.000000
 11
       78.474000
 21
      -12.200000
 31
        0.000000
  0
LINE
  8
1
 10
       78.474000
 20
      -12.200000
 30
        0.000000
 11
       77.474000
 21
      -12.200000
 31
        0.000000
  0
LINE
  8
1
 10
       77.474000
 20
       14.400000
 30
        0.000000
 11
       77.474000
 21
      -14.400000
 31
        0.000000
  0
LINE
  8
1
 10
       77.474000
 20
      -14.400000
 30
        0.000000
 11
       76.974000
 21
      -14.900000
 31
        0.000000
  0
LINE
  8
1
 10
       76.974000
 20
      -14.900000
 30
        0.000000
 11
       76.474000
 21
      -14.900000
 31
        0.000000
  0
LINE
  8
1
 10
       76.474000
 20
       15.500000
 30
        0.000000
 11
       76.474000
 21
      -15.500000
 31
        0.000000
  0
LINE
  8
1
 10
       76.474000
 20
      -15.500000
 30
        0.000000
 11
       75.724000
 21
      -16.250000
 31
        0.000000
  0
LINE
  8
1
 10
       75.724000
 20
      -16.250000
 30
        0.000000
 11
       66.974000
 21
      -16.250000
 31
        0.000000
  0
LINE
  8
1
 10
       66.974000
 20
      -16.250000
 30
        0.000000
 11
       66.224000
 21
      -17.000000
 31
        0.000000
  0
LINE
  8
1
 10
       66.224000
 20
      -17.000000
 30
        0.000000
 11
       58.974000
 21
      -17.000000
 31
        0.000000
  0
LINE
  8
1
 10
       58.974000
 20
      -17.000000
 30
        0.000000
 11
       57.963637
 21
      -15.250000
 31
        0.000000
  0
LINE
  8
1
 10
       57.963637
 20
      -15.250000
 30
        0.000000
 11
       55.274000
 21
      -15.250000
 31
        0.000000
  0
LINE
  8
1
 10
       55.274000
 20
      -15.250000
 30
        0.000000
 11
       54.974000
 21
      -14.950000
 31
        0.000000
  0
LINE
  8
1
 10
       54.974000
 20
      -14.950000
 30
        0.000000
 11
       54.974000
 21
       14.950000
 31
        0.000000
  0
LINE
  8
1
 10
       54.974000
 20
      -13.650000
 30
        0.000000
 11
       54.474000
 21
      -13.650000
 31
        0.000000
  0
LINE
  8
1
 10
       54.474000
 20
       14.950000
 30
        0.000000
 11
       54.474000
 21
      -14.950000
 31
        0.000000
  0
LINE
  8
1
 10
       54.474000
 20
      -14.950000
 30
        0.000000
 11
       54.174000
 21
      -15.250000
 31
        0.000000
  0
LINE
  8
1
 10
       54.174000
 20
      -15.250000
 30
        0.000000
 11
       49.974000
 21
      -15.250000
 31
        0.000000
  0
LINE
  8
1
 10
       49.974000
 20
      -15.250000
 30
        0.000000
 11
       48.974000
 21
      -14.250000
 31
        0.000000
  0
LINE
  8
1
 10
       48.974000
 20
      -14.250000
 30
        0.000000
 11
       47.974000
 21
      -15.250000
 31
        0.000000
  0
LINE
  8
1
 10
       47.974000
 20
      -15.250000
 30
        0.000000
 11
       44.974000
 21
      -15.250000
 31
        0.000000
  0
LINE
  8
1
 10
       44.974000
 20
      -15.250000
 30
        0.000000
 11
       43.974000
 21
      -14.250000
 31
        0.000000
  0
LINE
  8
1
 10
       43.974000
 20
      -14.250000
 30
        0.000000
 11
       40.774000
 21
      -14.250000
 31
        0.000000
  0
LINE
  8
1
 10
       40.774000
 20
      -14.250000
 30
        0.000000
 11
       40.474000
 21
      -13.950000
 31
        0.000000
  0
LINE
  8
1
 10
       40.474000
 20
      -13.950000
 30
        0.000000
 11
       40.474000
 21
       13.950000
 31
        0.000000
  0
LINE
  8
1
 10
       61.974000
 20
       17.750000
 30
        0.000000
 11
       61.974000
 21
       17.000000
 31
        0.000000
  0
LINE
  8
1
 10
       59.974000
 20
       17.750000
 30
        0.000000
 11
       59.974000
 21
       17.000000
 31
        0.000000
  0
LINE
  8
1
 10
       58.974000
 20
       18.050000
 30
        0.000000
 11
       62.974000
 21
       18.050000
 31
        0.000000
  0
LINE
  8
1
 10
       58.974000
 20
       18.050000
 30
        0.000000
 11
       59.274000
 21
       17.750000
 31
        0.000000
  0
LINE
  8
1
 10
       62.674000
 20
       17.750000
 30
        0.000000
 11
       62.974000
 21
       18.050000
 31
        0.000000
  0
LINE
  8
1
 10
       59.274000
 20
       17.750000
 30
        0.000000
 11
       62.674000
 21
       17.750000
 31
        0.000000
  0
LINE
  8
1
 10
       50.474000
 20
       16.550000
 30
        0.000000
 11
       54.474000
 21
       16.550000
 31
        0.000000
  0
LINE
  8
1
 10
       51.474000
 20
       16.250000
 30
        0.000000
 11
       51.474000
 21
       15.250000
 31
        0.000000
  0
LINE
  8
1
 10
       50.474000
 20
       16.550000
 30
        0.000000
 11
       50.774000
 21
       16.250000
 31
        0.000000
  0
LINE
  8
1
 10
       54.174000
 20
       16.250000
 30
        0.000000
 11
       54.474000
 21
       16.550000
 31
        0.000000
  0
LINE
  8
1
 10
       50.774000
 20
       16.250000
 30
        0.000000
 11
       54.174000
 21
       16.250000
 31
        0.000000
  0
LINE
  8
1
 10
       53.474000
 20
       15.250000
 30
        0.000000
 11
       53.474000
 21
       16.250000
 31
        0.000000
  0
LINE
  8
1
 10
       80.974000
 20
       12.700000
 30
        0.000000
 11
       81.474000
 21
       12.200000
 31
        0.000000
  0
LINE
  8
1
 10
       78.974000
 20
       12.700000
 30
        0.000000
 11
       80.974000
 21
       12.700000
 31
        0.000000
  0
LINE
  8
1
 10
       78.474000
 20
       12.200000
 30
        0.000000
 11
       78.974000
 21
       12.700000
 31
        0.000000
  0
LINE
  8
1
 10
       77.474000
 20
       12.200000
 30
        0.000000
 11
       78.474000
 21
       12.200000
 31
        0.000000
  0
LINE
  8
1
 10
       76.974000
 20
       14.900000
 30
        0.000000
 11
       77.474000
 21
       14.400000
 31
        0.000000
  0
LINE
  8
1
 10
       76.474000
 20
       14.900000
 30
        0.000000
 11
       76.974000
 21
       14.900000
 31
        0.000000
  0
LINE
  8
1
 10
       75.724000
 20
       16.250000
 30
        0.000000
 11
       76.474000
 21
       15.500000
 31
        0.000000
  0
LINE
  8
1
 10
       66.974000
 20
       16.250000
 30
        0.000000
 11
       75.724000
 21
       16.250000
 31
        0.000000
  0
LINE
  8
1
 10
       66.224000
 20
       17.000000
 30
        0.000000
 11
       66.974000
 21
       16.250000
 31
        0.000000
  0
LINE
  8
1
 10
       58.974000
 20
       17.000000
 30
        0.000000
 11
       66.224000
 21
       17.000000
 31
        0.000000
  0
LINE
  8
1
 10
       57.963637
 20
       15.250000
 30
        0.000000
 11
       58.974000
 21
       17.000000
 31
        0.000000
  0
LINE
  8
1
 10
       55.274000
 20
       15.250000
 30
        0.000000
 11
       57.963637
 21
       15.250000
 31
        0.000000
  0
LINE
  8
1
 10
       54.974000
 20
       14.950000
 30
        0.000000
 11
       55.274000
 21
       15.250000
 31
        0.000000
  0
LINE
  8
1
 10
       54.474000
 20
       13.650000
 30
        0.000000
 11
       54.974000
 21
       13.650000
 31
        0.000000
  0
LINE
  8
1
 10
       54.174000
 20
       15.250000
 30
        0.000000
 11
       54.474000
 21
       14.950000
 31
        0.000000
  0
LINE
  8
1
 10
       49.974000
 20
       15.250000
 30
        0.000000
 11
       54.174000
 21
       15.250000
 31
        0.000000
  0
LINE
  8
1
 10
       48.974000
 20
       14.250000
 30
        0.000000
 11
       49.974000
 21
       15.250000
 31
        0.000000
  0
LINE
  8
1
 10
       47.974000
 20
       15.250000
 30
        0.000000
 11
       48.974000
 21
       14.250000
 31
        0.000000
  0
LINE
  8
1
 10
       44.974000
 20
       15.250000
 30
        0.000000
 11
       47.974000
 21
       15.250000
 31
        0.000000
  0
TEXT
  8
0
 62
  2
 10
      -13.962500
 20
       29.712500
 30
        0.000000
 40
        3.000000
  1
ＩＶ－１Ｂ２０１２
 50
        0.000000
 41
        1.000000
 51
        0.000000
  7
BIGFONT
  0
LINE
  8
1
  6
CENTER
 10
       37.601190
 20
        0.000000
 30
        0.000000
 11
       86.256252
 21
        0.000000
 31
        0.000000
  0
LINE
  8
1
 10
       83.173970
 20
       11.000000
 30
        0.000000
 11
       83.673970
 21
       10.500000
 31
        0.000000
  0
LINE
  8
1
 10
       81.474000
 20
       11.000000
 30
        0.000000
 11
       83.173970
 21
       11.000000
 31
        0.000000
  0
LINE
  8
1
 10
       83.173970
 20
       11.000000
 30
        0.000000
 11
       83.173970
 21
      -11.000000
 31
        0.000000
  0
LINE
  8
1
 10
       83.673970
 20
       10.500000
 30
        0.000000
 11
       83.673970
 21
      -10.500000
 31
        0.000000
  0
LINE
  8
1
 10
       83.673970
 20
      -10.500000
 30
        0.000000
 11
       83.173970
 21
      -11.000000
 31
        0.000000
  0
LINE
  8
1
 10
       83.173970
 20
      -11.000000
 30
        0.000000
 11
       81.474000
 21
      -11.000000
 31
        0.000000
  0
ENDSEC
  0
EOF
