  0
SECTION
  2
HEADER
  9
$ACADVER
  1
AC1006
  9
$INSBASE
 10
0.0
 20
0.0
 30
0.0
  9
$EXTMIN
 10
      -19.438089
 20
      -19.438089
  9
$EXTMAX
 10
       90.019547
 20
       34.037216
  9
$LIMMIN
 10
      -19.438089
 20
      -19.438089
  9
$LIMMAX
 10
       90.019547
 20
       34.037216
  9
$VIEWCTR
 10
       35.290730
 20
       35.290730
  9
$ORTHOMODE
 70
     0
  9
$ANGBASE
 50
0.0
  9
$ANGDIR
 70
     0
  9
$SPLINETYPE
 70
     6
  9
$SPLINESEGS
 70
     8
9
$DIMASZ
 40
        2.500000
9
$DIMEXE
 40
        0.500000
9
$DIMEXO
 40
        1.000000
9
$DIMTXT
 40
        2.500000
9
$DIMGAP
 40
        0.500000
9
$DIMTAD
 70
1
9
$DIMTIH
 70
0
9
$DIMTOH
 70
0
  0
ENDSEC
  0
SECTION
  2
TABLES
  0
TABLE
  2
LTYPE
 70
     5
  0
LTYPE
  2
CONTINUOUS
 70
    64
  3
SOLID LINE
 72
    65
 73
     0
 40
0.0
  0
LTYPE
  2
DASHED
 70
    64
  3
-- -- -- -- -- --
 72
    65
 73
     2
 40
  0.75  
 49
  0.50  
 49
 -0.25  
  0
LTYPE
  2
DOT
 70
    64
  3
....................
 72
    65
 73
     2
 40
  0.25  
 49
  0.02  
 49
 -0.23  
  0
LTYPE
  2
CENTER
 70
    64
  3
-- . -- . -- . -- .
 72
    65
 73
    4
 40
  2.00  
 49
  1.25  
 49
 -0.25  
 49
  0.25  
 49
 -0.25  
  0
LTYPE
  2
PHANTOM
 70
    64
  3
-- .. -- .. -- ..
 72
    65
 73
    6
 40
  2.50  
 49
  1.25  
 49
 -0.25  
 49
  0.25  
 49
 -0.25  
 49
  0.25  
 49
 -0.25  
  0
ENDTAB
  0
TABLE
  2
LAYER
 70
     2
  0
LAYER
  2
0
 70
    64
 62
     2
  6
CONTINUOUS
  0
LAYER
  2
1
 70
    64
 62
     3
  6
CONTINUOUS
  0
ENDTAB
  0
TABLE
  2
STYLE
 70
     2
  0
STYLE
  2
STANDARD
 70
    64
 40
0.0
 41
1.0
 50
0.0
 71
     0
 42
5.0
  3
ROMANS
  4
BIGFONT
  0
STYLE
  2
BIGFONT
 70
    64
 40
0.0
 41
1.0
 50
0.0
 71
     0
 42
5.0
  3
ROMANS
  4
BIGFONT
  0
ENDTAB
  0
TABLE
  2
VIEW
 70
     0
  0
ENDTAB
  0
TABLE
  2
UCS
 70
     0
  0
ENDTAB
  0
TABLE
  2
DWGMGR
 70
     0
  0
ENDTAB
  0
ENDSEC
  0
SECTION
  2
BLOCKS
  0
BLOCK
  8
0
  2
BLK0001
 70
    64
 10
        0.000000
 20
        0.000000
  0
TEXT
  8
0
 62
  5
 10
       -3.750000
 20
      -25.797430
 30
        0.000000
 40
        2.500000
  1
φ３３
 50
        0.000000
 41
        1.000000
 51
        0.000000
  7
BIGFONT
  0
LINE
  8
0
 62
  5
 10
       16.500000
 20
       -1.000000
 30
        0.000000
 11
       16.500000
 21
      -26.797430
 31
        0.000000
  0
LINE
  8
0
 62
  5
 10
      -16.500000
 20
       -1.000000
 30
        0.000000
 11
      -16.500000
 21
      -26.797430
 31
        0.000000
  0
LINE
  8
0
 62
  5
 10
       14.000000
 20
      -26.951929
 30
        0.000000
 11
       16.500000
 21
      -26.297430
 31
        0.000000
  0
LINE
  8
0
 62
  5
 10
       16.500000
 20
      -26.297430
 30
        0.000000
 11
       14.000000
 21
      -25.642931
 31
        0.000000
  0
LINE
  8
0
 62
  5
 10
      -14.000000
 20
      -25.642931
 30
        0.000000
 11
      -16.500000
 21
      -26.297430
 31
        0.000000
  0
LINE
  8
0
 62
  5
 10
      -16.500000
 20
      -26.297430
 30
        0.000000
 11
      -14.000000
 21
      -26.951929
 31
        0.000000
  0
LINE
  8
0
 62
  5
 10
       16.500000
 20
      -26.297430
 30
        0.000000
 11
      -16.500000
 21
      -26.297430
 31
        0.000000
  0
ENDBLK
  0
BLOCK
  8
0
  2
BLK0002
 70
    64
 10
        0.000000
 20
        0.000000
  0
TEXT
  8
0
 62
  5
 10
       58.369549
 20
      -25.797430
 30
        0.000000
 40
        2.500000
  1
３９．５
 50
        0.000000
 41
        1.000000
 51
        0.000000
  7
BIGFONT
  0
LINE
  8
0
 62
  5
 10
       43.619549
 20
      -14.950000
 30
        0.000000
 11
       43.619549
 21
      -26.797430
 31
        0.000000
  0
LINE
  8
0
 62
  5
 10
       83.119545
 20
      -16.000000
 30
        0.000000
 11
       83.119545
 21
      -26.797430
 31
        0.000000
  0
LINE
  8
0
 62
  5
 10
       46.119549
 20
      -25.642931
 30
        0.000000
 11
       43.619549
 21
      -26.297430
 31
        0.000000
  0
LINE
  8
0
 62
  5
 10
       43.619549
 20
      -26.297430
 30
        0.000000
 11
       46.119549
 21
      -26.951929
 31
        0.000000
  0
LINE
  8
0
 62
  5
 10
       80.619545
 20
      -26.951929
 30
        0.000000
 11
       83.119545
 21
      -26.297430
 31
        0.000000
  0
LINE
  8
0
 62
  5
 10
       83.119545
 20
      -26.297430
 30
        0.000000
 11
       80.619545
 21
      -25.642931
 31
        0.000000
  0
LINE
  8
0
 62
  5
 10
       43.619549
 20
      -26.297430
 30
        0.000000
 11
       83.119545
 21
      -26.297430
 31
        0.000000
  0
ENDBLK
  0
ENDSEC
  0
SECTION
  2
ENTITIES
  0
CIRCLE
  8
1
 10
        0.000000
 20
        0.000000
 30
        0.000000
 40
       12.250000
  0
LINE
  8
1
  6
CENTER
 10
       19.300953
 20
        0.000000
 30
        0.000000
 11
      -19.408403
 21
        0.000000
 31
        0.000000
  0
LINE
  8
1
  6
CENTER
 10
       94.466341
 20
        0.000000
 30
        0.000000
 11
       36.340504
 21
        0.000000
 31
        0.000000
  0
LINE
  8
1
 10
        2.000000
 20
       19.700000
 30
        0.000000
 11
        2.000000
 21
       17.800000
 31
        0.000000
  0
LINE
  8
1
 10
       -2.000000
 20
       19.700000
 30
        0.000000
 11
       -2.000000
 21
       17.800000
 31
        0.000000
  0
LINE
  8
1
 10
        1.700000
 20
       17.500000
 30
        0.000000
 11
       -1.700000
 21
       17.500000
 31
        0.000000
  0
LINE
  8
1
 10
        2.000000
 20
       19.700000
 30
        0.000000
 11
        1.700000
 21
       20.000000
 31
        0.000000
  0
LINE
  8
1
 10
       -2.000000
 20
       19.700000
 30
        0.000000
 11
       -1.700000
 21
       20.000000
 31
        0.000000
  0
LINE
  8
1
 10
       -1.700000
 20
       17.500000
 30
        0.000000
 11
       -2.000000
 21
       17.800000
 31
        0.000000
  0
LINE
  8
1
 10
        1.700000
 20
       17.500000
 30
        0.000000
 11
        2.000000
 21
       17.800000
 31
        0.000000
  0
LINE
  8
1
 10
       86.619548
 20
      -12.200000
 30
        0.000000
 11
       86.619548
 21
        0.000000
 31
        0.000000
  0
LINE
  8
1
 10
       86.619548
 20
      -11.500000
 30
        0.000000
 11
       86.619548
 21
      -12.200000
 31
        0.000000
  0
LINE
  8
1
 10
       86.619548
 20
       12.200000
 30
        0.000000
 11
       86.119548
 21
       12.700000
 31
        0.000000
  0
LINE
  8
1
 10
       86.619548
 20
        0.000000
 30
        0.000000
 11
       86.619548
 21
       12.200000
 31
        0.000000
  0
LINE
  8
1
 10
       86.619548
 20
       12.200000
 30
        0.000000
 11
       86.119548
 21
       12.700000
 31
        0.000000
  0
LINE
  8
1
 10
       86.119548
 20
       12.700000
 30
        0.000000
 11
       84.119548
 21
       12.700000
 31
        0.000000
  0
LINE
  8
1
 10
       84.119548
 20
       12.700000
 30
        0.000000
 11
       84.119548
 21
       12.200000
 31
        0.000000
  0
LINE
  8
1
 10
       84.119548
 20
       12.200000
 30
        0.000000
 11
       83.119548
 21
       12.200000
 31
        0.000000
  0
LINE
  8
1
 10
       83.119548
 20
       12.200000
 30
        0.000000
 11
       83.119548
 21
       15.000000
 31
        0.000000
  0
LINE
  8
1
 10
       83.119548
 20
       15.000000
 30
        0.000000
 11
       82.619548
 21
       15.500000
 31
        0.000000
  0
LINE
  8
1
 10
       82.619548
 20
       15.500000
 30
        0.000000
 11
       76.619548
 21
       15.500000
 31
        0.000000
  0
LINE
  8
1
 10
       76.619548
 20
       15.500000
 30
        0.000000
 11
       76.619548
 21
       15.750000
 31
        0.000000
  0
LINE
  8
1
 10
       76.619548
 20
       15.750000
 30
        0.000000
 11
       75.619548
 21
       16.750000
 31
        0.000000
  0
LINE
  8
1
 10
       75.619548
 20
       16.750000
 30
        0.000000
 11
       66.119548
 21
       16.750000
 31
        0.000000
  0
LINE
  8
1
 10
       66.119548
 20
       16.750000
 30
        0.000000
 11
       65.619548
 21
       16.250000
 31
        0.000000
  0
LINE
  8
1
 10
       65.619548
 20
       16.250000
 30
        0.000000
 11
       65.619548
 21
       16.000000
 31
        0.000000
  0
LINE
  8
1
 10
       65.619548
 20
       16.000000
 30
        0.000000
 11
       64.619548
 21
       16.000000
 31
        0.000000
  0
LINE
  8
1
 10
       64.619548
 20
       16.000000
 30
        0.000000
 11
       64.119548
 21
       16.500000
 31
        0.000000
  0
LINE
  8
1
 10
       64.119548
 20
       16.500000
 30
        0.000000
 11
       50.019548
 21
       16.500000
 31
        0.000000
  0
LINE
  8
1
 10
       50.019548
 20
       16.500000
 30
        0.000000
 11
       48.519548
 21
       14.750000
 31
        0.000000
  0
LINE
  8
1
 10
       48.519548
 20
       14.750000
 30
        0.000000
 11
       48.519548
 21
       14.250000
 31
        0.000000
  0
LINE
  8
1
 10
       48.519548
 20
       14.250000
 30
        0.000000
 11
       43.919548
 21
       14.250000
 31
        0.000000
  0
LINE
  8
1
 10
       43.919548
 20
       14.250000
 30
        0.000000
 11
       43.619548
 21
       13.950000
 31
        0.000000
  0
LINE
  8
1
 10
       43.619548
 20
       13.950000
 30
        0.000000
 11
       43.619548
 21
       13.500000
 31
        0.000000
  0
LINE
  8
1
 10
       43.919548
 20
       14.250000
 30
        0.000000
 11
       43.919548
 21
       13.200000
 31
        0.000000
  0
LINE
  8
1
 10
       48.519548
 20
       14.250000
 30
        0.000000
 11
       48.519548
 21
        0.000000
 31
        0.000000
  0
LINE
  8
1
 10
       50.019548
 20
       16.500000
 30
        0.000000
 11
       50.019548
 21
        0.000000
 31
        0.000000
  0
LINE
  8
1
 10
       64.119548
 20
       16.500000
 30
        0.000000
 11
       64.119548
 21
        0.000000
 31
        0.000000
  0
LINE
  8
1
 10
       64.619548
 20
       16.000000
 30
        0.000000
 11
       64.619548
 21
        0.000000
 31
        0.000000
  0
LINE
  8
1
 10
       65.619548
 20
       16.000000
 30
        0.000000
 11
       65.619548
 21
        0.000000
 31
        0.000000
  0
LINE
  8
1
 10
       66.119548
 20
       16.750000
 30
        0.000000
 11
       66.119548
 21
        0.000000
 31
        0.000000
  0
LINE
  8
1
 10
       75.619548
 20
       16.750000
 30
        0.000000
 11
       75.619548
 21
        0.000000
 31
        0.000000
  0
LINE
  8
1
 10
       76.619548
 20
       15.500000
 30
        0.000000
 11
       76.619548
 21
        0.000000
 31
        0.000000
  0
LINE
  8
1
 10
       82.619548
 20
       15.500000
 30
        0.000000
 11
       82.619548
 21
        0.000000
 31
        0.000000
  0
LINE
  8
1
 10
       83.119548
 20
       12.200000
 30
        0.000000
 11
       83.119548
 21
        0.000000
 31
        0.000000
  0
LINE
  8
1
 10
       84.119548
 20
       12.200000
 30
        0.000000
 11
       84.119548
 21
        0.000000
 31
        0.000000
  0
LINE
  8
1
 10
       86.619548
 20
      -12.200000
 30
        0.000000
 11
       86.619548
 21
      -11.250000
 31
        0.000000
  0
LINE
  8
1
 10
       86.119548
 20
      -12.700000
 30
        0.000000
 11
       86.619548
 21
      -12.200000
 31
        0.000000
  0
LINE
  8
1
 10
       84.119548
 20
      -12.700000
 30
        0.000000
 11
       86.119548
 21
      -12.700000
 31
        0.000000
  0
LINE
  8
1
 10
       84.119548
 20
      -12.200000
 30
        0.000000
 11
       84.119548
 21
      -12.700000
 31
        0.000000
  0
LINE
  8
1
 10
       83.119548
 20
      -12.200000
 30
        0.000000
 11
       84.119548
 21
      -12.200000
 31
        0.000000
  0
LINE
  8
1
 10
       83.119548
 20
      -15.000000
 30
        0.000000
 11
       83.119548
 21
      -12.200000
 31
        0.000000
  0
LINE
  8
1
 10
       82.619548
 20
      -15.500000
 30
        0.000000
 11
       83.119548
 21
      -15.000000
 31
        0.000000
  0
LINE
  8
1
 10
       76.619548
 20
      -15.500000
 30
        0.000000
 11
       82.619548
 21
      -15.500000
 31
        0.000000
  0
LINE
  8
1
 10
       76.619548
 20
      -15.750000
 30
        0.000000
 11
       76.619548
 21
      -15.500000
 31
        0.000000
  0
LINE
  8
1
 10
       75.619548
 20
      -16.750000
 30
        0.000000
 11
       76.619548
 21
      -15.750000
 31
        0.000000
  0
LINE
  8
1
 10
       66.119548
 20
      -16.750000
 30
        0.000000
 11
       75.619548
 21
      -16.750000
 31
        0.000000
  0
LINE
  8
1
 10
       65.619548
 20
      -16.250000
 30
        0.000000
 11
       66.119548
 21
      -16.750000
 31
        0.000000
  0
LINE
  8
1
 10
       65.619548
 20
      -16.000000
 30
        0.000000
 11
       65.619548
 21
      -16.250000
 31
        0.000000
  0
LINE
  8
1
 10
       64.619548
 20
      -16.000000
 30
        0.000000
 11
       65.619548
 21
      -16.000000
 31
        0.000000
  0
LINE
  8
1
 10
       64.119548
 20
      -16.500000
 30
        0.000000
 11
       64.619548
 21
      -16.000000
 31
        0.000000
  0
LINE
  8
1
 10
       50.019548
 20
      -16.500000
 30
        0.000000
 11
       64.119548
 21
      -16.500000
 31
        0.000000
  0
LINE
  8
1
 10
       48.519548
 20
      -15.000000
 30
        0.000000
 11
       50.019548
 21
      -16.500000
 31
        0.000000
  0
LINE
  8
1
 10
       48.519548
 20
      -14.250000
 30
        0.000000
 11
       48.519548
 21
      -15.000000
 31
        0.000000
  0
LINE
  8
1
 10
       43.919548
 20
      -14.250000
 30
        0.000000
 11
       48.519548
 21
      -14.250000
 31
        0.000000
  0
LINE
  8
1
 10
       43.619548
 20
      -13.950000
 30
        0.000000
 11
       43.919548
 21
      -14.250000
 31
        0.000000
  0
LINE
  8
1
 10
       43.619548
 20
        0.000000
 30
        0.000000
 11
       43.619548
 21
      -13.950000
 31
        0.000000
  0
LINE
  8
1
 10
       43.919548
 20
        0.000000
 30
        0.000000
 11
       43.919548
 21
      -14.250000
 31
        0.000000
  0
LINE
  8
1
 10
       48.519548
 20
        0.000000
 30
        0.000000
 11
       48.519548
 21
      -14.250000
 31
        0.000000
  0
LINE
  8
1
 10
       50.019548
 20
        0.000000
 30
        0.000000
 11
       50.019548
 21
      -16.500000
 31
        0.000000
  0
LINE
  8
1
 10
       64.119548
 20
        0.000000
 30
        0.000000
 11
       64.119548
 21
      -16.500000
 31
        0.000000
  0
LINE
  8
1
 10
       64.619548
 20
        0.000000
 30
        0.000000
 11
       64.619548
 21
      -16.000000
 31
        0.000000
  0
LINE
  8
1
 10
       65.619548
 20
        0.000000
 30
        0.000000
 11
       65.619548
 21
      -16.000000
 31
        0.000000
  0
LINE
  8
1
 10
       66.119548
 20
        0.000000
 30
        0.000000
 11
       66.119548
 21
      -16.750000
 31
        0.000000
  0
LINE
  8
1
 10
       75.619548
 20
        0.000000
 30
        0.000000
 11
       75.619548
 21
      -16.750000
 31
        0.000000
  0
LINE
  8
1
 10
       76.619548
 20
        0.000000
 30
        0.000000
 11
       76.619548
 21
      -15.500000
 31
        0.000000
  0
LINE
  8
1
 10
       82.619548
 20
        0.000000
 30
        0.000000
 11
       82.619548
 21
      -15.500000
 31
        0.000000
  0
LINE
  8
1
 10
       83.119548
 20
        0.000000
 30
        0.000000
 11
       83.119548
 21
      -12.200000
 31
        0.000000
  0
LINE
  8
1
 10
       84.119548
 20
        0.000000
 30
        0.000000
 11
       84.119548
 21
      -12.200000
 31
        0.000000
  0
LINE
  8
1
 10
       86.619548
 20
        0.000000
 30
        0.000000
 11
       86.619548
 21
      -11.250000
 31
        0.000000
  0
LINE
  8
1
 10
       60.519548
 20
       16.500000
 30
        0.000000
 11
       58.519548
 21
       16.500000
 31
        0.000000
  0
LINE
  8
1
 10
       74.419548
 20
       16.750000
 30
        0.000000
 11
       72.919548
 21
       16.750000
 31
        0.000000
  0
LINE
  8
1
 10
       65.619548
 20
       16.250000
 30
        0.000000
 11
       65.619548
 21
       16.100000
 31
        0.000000
  0
LINE
  8
1
 10
       66.119548
 20
       16.750000
 30
        0.000000
 11
       71.319548
 21
       16.750000
 31
        0.000000
  0
LINE
  8
1
 10
       65.619548
 20
       16.250000
 30
        0.000000
 11
       66.119548
 21
       16.750000
 31
        0.000000
  0
LINE
  8
1
 10
       64.119548
 20
       16.500000
 30
        0.000000
 11
       60.519548
 21
       16.500000
 31
        0.000000
  0
LINE
  8
1
 10
       64.619548
 20
       16.000000
 30
        0.000000
 11
       64.119548
 21
       16.500000
 31
        0.000000
  0
LINE
  8
1
 10
       43.619548
 20
       13.500000
 30
        0.000000
 11
       43.619548
 21
        0.000000
 31
        0.000000
  0
LINE
  8
1
 10
       43.919548
 20
       13.200000
 30
        0.000000
 11
       43.919548
 21
        0.000000
 31
        0.000000
  0
LINE
  8
1
 10
       72.119548
 20
       19.700000
 30
        0.000000
 11
       72.119548
 21
       17.800000
 31
        0.000000
  0
LINE
  8
1
 10
       71.119548
 20
       17.300000
 30
        0.000000
 11
       71.119548
 21
       16.750000
 31
        0.000000
  0
LINE
  8
1
 10
       73.119548
 20
       17.300000
 30
        0.000000
 11
       73.119548
 21
       16.750000
 31
        0.000000
  0
LINE
  8
1
 10
       71.119548
 20
       17.300000
 30
        0.000000
 11
       73.119548
 21
       17.300000
 31
        0.000000
  0
LINE
  8
1
 10
       71.119548
 20
       17.500000
 30
        0.000000
 11
       71.119548
 21
       17.300000
 31
        0.000000
  0
LINE
  8
1
 10
       71.319548
 20
       17.300000
 30
        0.000000
 11
       71.319548
 21
       16.750000
 31
        0.000000
  0
LINE
  8
1
 10
       73.119548
 20
       17.500000
 30
        0.000000
 11
       73.119548
 21
       17.300000
 31
        0.000000
  0
LINE
  8
1
 10
       70.419548
 20
       20.000000
 30
        0.000000
 11
       73.819548
 21
       20.000000
 31
        0.000000
  0
LINE
  8
1
 10
       74.119548
 20
       19.700000
 30
        0.000000
 11
       74.119548
 21
       17.800000
 31
        0.000000
  0
LINE
  8
1
 10
       70.119548
 20
       19.700000
 30
        0.000000
 11
       70.119548
 21
       17.800000
 31
        0.000000
  0
LINE
  8
1
 10
       74.119548
 20
       19.700000
 30
        0.000000
 11
       73.819548
 21
       20.000000
 31
        0.000000
  0
LINE
  8
1
 10
       70.119548
 20
       19.700000
 30
        0.000000
 11
       70.419548
 21
       20.000000
 31
        0.000000
  0
LINE
  8
1
 10
       70.419548
 20
       17.500000
 30
        0.000000
 11
       70.119548
 21
       17.800000
 31
        0.000000
  0
LINE
  8
1
 10
       73.819548
 20
       17.500000
 30
        0.000000
 11
       74.119548
 21
       17.800000
 31
        0.000000
  0
LINE
  8
1
 10
       70.119548
 20
       19.700000
 30
        0.000000
 11
       74.119548
 21
       19.700000
 31
        0.000000
  0
LINE
  8
1
 10
       70.119548
 20
       17.800000
 30
        0.000000
 11
       74.119548
 21
       17.800000
 31
        0.000000
  0
LINE
  8
1
 10
       74.019548
 20
       19.700000
 30
        0.000000
 11
       74.019548
 21
       17.800000
 31
        0.000000
  0
LINE
  8
1
 10
       73.819548
 20
       19.700000
 30
        0.000000
 11
       73.819548
 21
       17.800000
 31
        0.000000
  0
LINE
  8
1
 10
       73.519548
 20
       19.700000
 30
        0.000000
 11
       73.519548
 21
       17.800000
 31
        0.000000
  0
LINE
  8
1
 10
       73.119548
 20
       19.700000
 30
        0.000000
 11
       73.119548
 21
       17.800000
 31
        0.000000
  0
LINE
  8
1
 10
       72.619548
 20
       19.700000
 30
        0.000000
 11
       72.619548
 21
       17.800000
 31
        0.000000
  0
LINE
  8
1
 10
       71.619548
 20
       17.800000
 30
        0.000000
 11
       71.619548
 21
       19.700000
 31
        0.000000
  0
LINE
  8
1
 10
       71.119548
 20
       17.800000
 30
        0.000000
 11
       71.119548
 21
       19.700000
 31
        0.000000
  0
LINE
  8
1
 10
       70.719548
 20
       17.800000
 30
        0.000000
 11
       70.719548
 21
       19.700000
 31
        0.000000
  0
LINE
  8
1
 10
       70.419548
 20
       17.800000
 30
        0.000000
 11
       70.419548
 21
       19.700000
 31
        0.000000
  0
LINE
  8
1
 10
       70.219548
 20
       17.800000
 30
        0.000000
 11
       70.219548
 21
       19.700000
 31
        0.000000
  0
LINE
  8
1
 10
       73.819548
 20
       17.500000
 30
        0.000000
 11
       70.419548
 21
       17.500000
 31
        0.000000
  0
LINE
  8
1
 10
       73.119548
 20
       17.500000
 30
        0.000000
 11
       72.919548
 21
       17.300000
 31
        0.000000
  0
LINE
  8
1
 10
       71.319548
 20
       17.300000
 30
        0.000000
 11
       71.119548
 21
       17.500000
 31
        0.000000
  0
LINE
  8
1
 10
       72.919548
 20
       17.300000
 30
        0.000000
 11
       72.919548
 21
       16.750000
 31
        0.000000
  0
LINE
  8
1
 10
       57.519548
 20
       19.700000
 30
        0.000000
 11
       61.519548
 21
       19.700000
 31
        0.000000
  0
LINE
  8
1
 10
       57.519548
 20
       17.800000
 30
        0.000000
 11
       61.519548
 21
       17.800000
 31
        0.000000
  0
LINE
  8
1
 10
       61.419548
 20
       19.700000
 30
        0.000000
 11
       61.419548
 21
       17.800000
 31
        0.000000
  0
LINE
  8
1
 10
       61.219548
 20
       19.700000
 30
        0.000000
 11
       61.219548
 21
       17.800000
 31
        0.000000
  0
LINE
  8
1
 10
       60.919548
 20
       19.700000
 30
        0.000000
 11
       60.919548
 21
       17.800000
 31
        0.000000
  0
LINE
  8
1
 10
       60.519548
 20
       19.700000
 30
        0.000000
 11
       60.519548
 21
       17.800000
 31
        0.000000
  0
LINE
  8
1
 10
       60.019548
 20
       19.700000
 30
        0.000000
 11
       60.019548
 21
       17.800000
 31
        0.000000
  0
LINE
  8
1
 10
       59.019548
 20
       17.800000
 30
        0.000000
 11
       59.019548
 21
       19.700000
 31
        0.000000
  0
LINE
  8
1
 10
       58.519548
 20
       17.800000
 30
        0.000000
 11
       58.519548
 21
       19.700000
 31
        0.000000
  0
LINE
  8
1
 10
       58.119548
 20
       17.800000
 30
        0.000000
 11
       58.119548
 21
       19.700000
 31
        0.000000
  0
LINE
  8
1
 10
       57.819548
 20
       17.800000
 30
        0.000000
 11
       57.819548
 21
       19.700000
 31
        0.000000
  0
LINE
  8
1
 10
       57.619548
 20
       17.800000
 30
        0.000000
 11
       57.619548
 21
       19.700000
 31
        0.000000
  0
LINE
  8
1
 10
       60.519548
 20
       17.500000
 30
        0.000000
 11
       60.319548
 21
       17.300000
 31
        0.000000
  0
LINE
  8
1
 10
       58.717548
 20
       17.300000
 30
        0.000000
 11
       58.517548
 21
       17.500000
 31
        0.000000
  0
LINE
  8
1
 10
       60.519548
 20
       17.500000
 30
        0.000000
 11
       60.519548
 21
       17.300000
 31
        0.000000
  0
LINE
  8
1
 10
       58.519548
 20
       16.500000
 30
        0.000000
 11
       58.519548
 21
       17.300000
 31
        0.000000
  0
LINE
  8
1
 10
       58.719548
 20
       17.300000
 30
        0.000000
 11
       58.719548
 21
       16.500000
 31
        0.000000
  0
LINE
  8
1
 10
       60.319548
 20
       17.300000
 30
        0.000000
 11
       60.319548
 21
       16.500000
 31
        0.000000
  0
LINE
  8
1
 10
       59.519548
 20
       19.700000
 30
        0.000000
 11
       59.519548
 21
       17.800000
 31
        0.000000
  0
LINE
  8
1
 10
       60.519548
 20
       17.300000
 30
        0.000000
 11
       60.519548
 21
       16.500000
 31
        0.000000
  0
LINE
  8
1
 10
       58.519548
 20
       17.300000
 30
        0.000000
 11
       58.519548
 21
       17.500000
 31
        0.000000
  0
LINE
  8
1
 10
       58.519548
 20
       17.300000
 30
        0.000000
 11
       60.519548
 21
       17.300000
 31
        0.000000
  0
LINE
  8
1
 10
       57.819548
 20
       20.000000
 30
        0.000000
 11
       61.219548
 21
       20.000000
 31
        0.000000
  0
LINE
  8
1
 10
       61.519548
 20
       19.700000
 30
        0.000000
 11
       61.519548
 21
       17.800000
 31
        0.000000
  0
LINE
  8
1
 10
       57.519548
 20
       19.700000
 30
        0.000000
 11
       57.519548
 21
       17.800000
 31
        0.000000
  0
LINE
  8
1
 10
       61.219548
 20
       17.500000
 30
        0.000000
 11
       57.819548
 21
       17.500000
 31
        0.000000
  0
LINE
  8
1
 10
       61.519548
 20
       19.700000
 30
        0.000000
 11
       61.219548
 21
       20.000000
 31
        0.000000
  0
LINE
  8
1
 10
       57.519548
 20
       19.700000
 30
        0.000000
 11
       57.819548
 21
       20.000000
 31
        0.000000
  0
LINE
  8
1
 10
       57.819548
 20
       17.500000
 30
        0.000000
 11
       57.519548
 21
       17.800000
 31
        0.000000
  0
LINE
  8
1
 10
       61.219548
 20
       17.500000
 30
        0.000000
 11
       61.519548
 21
       17.800000
 31
        0.000000
  0
LINE
  8
1
 10
       86.619548
 20
       12.200000
 30
        0.000000
 11
       86.619548
 21
       11.500000
 31
        0.000000
  0
LINE
  8
1
 10
       84.119548
 20
       12.200000
 30
        0.000000
 11
       86.619548
 21
       12.200000
 31
        0.000000
  0
LINE
  8
1
 10
       86.619548
 20
      -12.200000
 30
        0.000000
 11
       84.119548
 21
      -12.200000
 31
        0.000000
  0
TEXT
  8
0
 10
       -9.111657
 20
       34.037218
 30
        0.000000
 40
        3.000000
  1
ＩＶ－１Ｂ２０２５
 50
        0.000000
 41
        1.000000
 51
        0.000000
  7
BIGFONT
  0
LINE
  8
1
 10
       -2.000000
 20
       19.700000
 30
        0.000000
 11
        2.000000
 21
       19.700000
 31
        0.000000
  0
LINE
  8
1
 10
       -2.000000
 20
       17.800000
 30
        0.000000
 11
        2.000000
 21
       17.800000
 31
        0.000000
  0
LINE
  8
1
 10
        1.900000
 20
       19.700000
 30
        0.000000
 11
        1.900000
 21
       17.800000
 31
        0.000000
  0
LINE
  8
1
 10
        1.700000
 20
       19.700000
 30
        0.000000
 11
        1.700000
 21
       17.800000
 31
        0.000000
  0
LINE
  8
1
 10
        1.400000
 20
       19.700000
 30
        0.000000
 11
        1.400000
 21
       17.800000
 31
        0.000000
  0
LINE
  8
1
 10
        1.000000
 20
       19.700000
 30
        0.000000
 11
        1.000000
 21
       17.800000
 31
        0.000000
  0
LINE
  8
1
 10
        0.500000
 20
       19.700000
 30
        0.000000
 11
        0.500000
 21
       17.800000
 31
        0.000000
  0
LINE
  8
1
 10
       -0.500000
 20
       17.800000
 30
        0.000000
 11
       -0.500000
 21
       19.700000
 31
        0.000000
  0
LINE
  8
1
 10
       -1.000000
 20
       17.800000
 30
        0.000000
 11
       -1.000000
 21
       19.700000
 31
        0.000000
  0
LINE
  8
1
 10
       -1.400000
 20
       17.800000
 30
        0.000000
 11
       -1.400000
 21
       19.700000
 31
        0.000000
  0
LINE
  8
1
 10
       -1.700000
 20
       17.800000
 30
        0.000000
 11
       -1.700000
 21
       19.700000
 31
        0.000000
  0
LINE
  8
1
 10
       -1.900000
 20
       17.800000
 30
        0.000000
 11
       -1.900000
 21
       19.700000
 31
        0.000000
  0
LINE
  8
1
 10
        1.000000
 20
       17.500000
 30
        0.000000
 11
        0.800000
 21
       17.300000
 31
        0.000000
  0
LINE
  8
1
 10
       -0.802000
 20
       17.300000
 30
        0.000000
 11
       -1.002000
 21
       17.500000
 31
        0.000000
  0
LINE
  8
1
 10
        1.000000
 20
       17.500000
 30
        0.000000
 11
        1.000000
 21
       17.300000
 31
        0.000000
  0
LINE
  8
1
 10
       -1.000000
 20
       16.500000
 30
        0.000000
 11
       -1.000000
 21
       17.300000
 31
        0.000000
  0
LINE
  8
1
 10
       -0.800000
 20
       17.300000
 30
        0.000000
 11
       -0.800000
 21
       16.500000
 31
        0.000000
  0
LINE
  8
1
 10
        0.800000
 20
       17.300000
 30
        0.000000
 11
        0.800000
 21
       16.500000
 31
        0.000000
  0
LINE
  8
1
 10
        0.000000
 20
       19.700000
 30
        0.000000
 11
        0.000000
 21
       17.800000
 31
        0.000000
  0
LINE
  8
1
 10
        1.000000
 20
       17.300000
 30
        0.000000
 11
        1.000000
 21
       16.500000
 31
        0.000000
  0
LINE
  8
1
 10
       -1.000000
 20
       17.300000
 30
        0.000000
 11
       -1.000000
 21
       17.500000
 31
        0.000000
  0
LINE
  8
1
 10
       -1.000000
 20
       17.300000
 30
        0.000000
 11
        1.000000
 21
       17.300000
 31
        0.000000
  0
LINE
  8
1
 10
       -1.700000
 20
       20.000000
 30
        0.000000
 11
        1.700000
 21
       20.000000
 31
        0.000000
  0
LINE
  8
1
  6
CENTER
 10
        0.000000
 20
       21.586587
 30
        0.000000
 11
        0.000000
 21
      -19.438090
 31
        0.000000
  0
DIMENSION
  8
0
 62
  3
  2
BLK0001
 10
       16.500000
 20
      -26.297430
 11
       -3.750000
 21
      -25.797430
 13
       16.500000
 23
        0.000000
 14
      -16.500000
 24
        0.000000
 50
        0.0
 70
  0
  0
DIMENSION
  8
0
 62
  3
  2
BLK0002
 10
       43.619549
 20
      -26.297430
 11
       58.369549
 21
      -25.797430
 13
       43.619549
 23
      -13.950000
 14
       83.119545
 24
      -15.000000
 50
        0.0
 70
  0
  0
LINE
  8
1
 10
       89.619548
 20
      -11.250000
 30
        0.000000
 11
       89.819548
 21
      -11.050000
 31
        0.000000
  0
LINE
  8
1
 10
       89.619548
 20
      -11.250000
 30
        0.000000
 11
       86.619548
 21
      -11.250000
 31
        0.000000
  0
LINE
  8
1
 10
       90.019548
 20
        0.000000
 30
        0.000000
 11
       90.019548
 21
       -8.000000
 31
        0.000000
  0
LINE
  8
1
 10
       89.819548
 20
        0.000000
 30
        0.000000
 11
       89.819548
 21
      -11.050000
 31
        0.000000
  0
LINE
  8
1
 10
       89.619548
 20
        0.000000
 30
        0.000000
 11
       89.619548
 21
      -11.250000
 31
        0.000000
  0
LINE
  8
1
 10
       89.819548
 20
       -8.200000
 30
        0.000000
 11
       90.019548
 21
       -8.000000
 31
        0.000000
  0
LINE
  8
1
 10
       90.019548
 20
        8.000000
 30
        0.000000
 11
       89.819548
 21
        8.200000
 31
        0.000000
  0
LINE
  8
1
 10
       89.819548
 20
       11.050000
 30
        0.000000
 11
       89.819548
 21
        0.000000
 31
        0.000000
  0
LINE
  8
1
 10
       90.019548
 20
        8.000000
 30
        0.000000
 11
       90.019548
 21
        0.000000
 31
        0.000000
  0
LINE
  8
1
 10
       86.619548
 20
       11.250000
 30
        0.000000
 11
       89.619548
 21
       11.250000
 31
        0.000000
  0
LINE
  8
1
 10
       89.819548
 20
       11.050000
 30
        0.000000
 11
       89.619548
 21
       11.250000
 31
        0.000000
  0
LINE
  8
1
 10
       89.619548
 20
       11.250000
 30
        0.000000
 11
       89.619548
 21
        0.000000
 31
        0.000000
  0
CIRCLE
  8
1
 10
        0.000000
 20
        0.000000
 30
        0.000000
 40
       13.500000
  0
CIRCLE
  8
1
 10
        0.000000
 20
        0.000000
 30
        0.000000
 40
       16.500000
  0
CIRCLE
  8
1
 10
        0.000000
 20
        0.000000
 30
        0.000000
 40
       14.250000
  0
CIRCLE
  8
1
 10
        0.000000
 20
        0.000000
 30
        0.000000
 40
       13.200000
  0
CIRCLE
  8
1
 10
        0.000000
 20
        0.000000
 30
        0.000000
 40
       12.500000
  0
ENDSEC
  0
EOF
