  0
SECTION
  2
HEADER
  9
$ACADVER
  1
AC1006
  9
$INSBASE
 10
0.0
 20
0.0
 30
0.0
  9
$EXTMIN
 10
      -19.842150
 20
      -19.842150
  9
$EXTMAX
 10
      102.221779
 20
       31.572996
  9
$LIMMIN
 10
      -19.842150
 20
      -19.842150
  9
$LIMMAX
 10
      102.221779
 20
       31.572996
  9
$VIEWCTR
 10
       41.189816
 20
       41.189816
  9
$ORTHOMODE
 70
     0
  9
$ANGBASE
 50
0.0
  9
$ANGDIR
 70
     0
  9
$SPLINETYPE
 70
     6
  9
$SPLINESEGS
 70
     8
9
$DIMASZ
 40
        2.500000
9
$DIMEXE
 40
        0.500000
9
$DIMEXO
 40
        1.000000
9
$DIMTXT
 40
        2.500000
9
$DIMGAP
 40
        0.500000
9
$DIMTAD
 70
1
9
$DIMTIH
 70
0
9
$DIMTOH
 70
0
  0
ENDSEC
  0
SECTION
  2
TABLES
  0
TABLE
  2
LTYPE
 70
     5
  0
LTYPE
  2
CONTINUOUS
 70
    64
  3
SOLID LINE
 72
    65
 73
     0
 40
0.0
  0
LTYPE
  2
DASHED
 70
    64
  3
-- -- -- -- -- --
 72
    65
 73
     2
 40
  0.75  
 49
  0.50  
 49
 -0.25  
  0
LTYPE
  2
DOT
 70
    64
  3
....................
 72
    65
 73
     2
 40
  0.25  
 49
  0.02  
 49
 -0.23  
  0
LTYPE
  2
CENTER
 70
    64
  3
-- . -- . -- . -- .
 72
    65
 73
    4
 40
  2.00  
 49
  1.25  
 49
 -0.25  
 49
  0.25  
 49
 -0.25  
  0
LTYPE
  2
PHANTOM
 70
    64
  3
-- .. -- .. -- ..
 72
    65
 73
    6
 40
  2.50  
 49
  1.25  
 49
 -0.25  
 49
  0.25  
 49
 -0.25  
 49
  0.25  
 49
 -0.25  
  0
ENDTAB
  0
TABLE
  2
LAYER
 70
     2
  0
LAYER
  2
0
 70
    64
 62
     3
  6
CONTINUOUS
  0
LAYER
  2
1
 70
    64
 62
     3
  6
CONTINUOUS
  0
ENDTAB
  0
TABLE
  2
STYLE
 70
     2
  0
STYLE
  2
STANDARD
 70
    64
 40
0.0
 41
1.0
 50
0.0
 71
     0
 42
5.0
  3
ROMANS
  4
BIGFONT
  0
STYLE
  2
BIGFONT
 70
    64
 40
0.0
 41
1.0
 50
0.0
 71
     0
 42
5.0
  3
ROMANS
  4
BIGFONT
  0
ENDTAB
  0
TABLE
  2
VIEW
 70
     0
  0
ENDTAB
  0
TABLE
  2
UCS
 70
     0
  0
ENDTAB
  0
TABLE
  2
DWGMGR
 70
     0
  0
ENDTAB
  0
ENDSEC
  0
SECTION
  2
BLOCKS
  0
BLOCK
  8
0
  2
BLK0001
 70
    64
 10
        0.000000
 20
        0.000000
  0
TEXT
  8
0
 62
  5
 10
       65.649445
 20
      -27.200485
 30
        0.000000
 40
        2.500000
  1
５５
 50
        0.000000
 41
        1.000000
 51
        0.000000
  7
BIGFONT
  0
LINE
  8
0
 62
  5
 10
       40.649445
 20
      -14.950000
 30
        0.000000
 11
       40.649445
 21
      -28.200485
 31
        0.000000
  0
LINE
  8
0
 62
  5
 10
       95.649445
 20
      -16.000000
 30
        0.000000
 11
       95.649445
 21
      -28.200485
 31
        0.000000
  0
LINE
  8
0
 62
  5
 10
       43.149445
 20
      -27.045986
 30
        0.000000
 11
       40.649445
 21
      -27.700485
 31
        0.000000
  0
LINE
  8
0
 62
  5
 10
       40.649445
 20
      -27.700485
 30
        0.000000
 11
       43.149445
 21
      -28.354984
 31
        0.000000
  0
LINE
  8
0
 62
  5
 10
       93.149445
 20
      -28.354984
 30
        0.000000
 11
       95.649445
 21
      -27.700485
 31
        0.000000
  0
LINE
  8
0
 62
  5
 10
       95.649445
 20
      -27.700485
 30
        0.000000
 11
       93.149445
 21
      -27.045986
 31
        0.000000
  0
LINE
  8
0
 62
  5
 10
       40.649445
 20
      -27.700485
 30
        0.000000
 11
       95.649445
 21
      -27.700485
 31
        0.000000
  0
ENDBLK
  0
BLOCK
  8
0
  2
BLK0002
 70
    64
 10
        0.000000
 20
        0.000000
  0
TEXT
  8
0
 62
  5
 10
       -3.750058
 20
      -27.200485
 30
        0.000000
 40
        2.500000
  1
φ３４
 50
        0.000000
 41
        1.000000
 51
        0.000000
  7
BIGFONT
  0
LINE
  8
0
 62
  5
 10
      -17.000057
 20
       -1.000000
 30
        0.000000
 11
      -17.000057
 21
      -28.200485
 31
        0.000000
  0
LINE
  8
0
 62
  5
 10
       16.999943
 20
       -1.000000
 30
        0.000000
 11
       16.999943
 21
      -28.200485
 31
        0.000000
  0
LINE
  8
0
 62
  5
 10
      -14.500057
 20
      -27.045986
 30
        0.000000
 11
      -17.000057
 21
      -27.700485
 31
        0.000000
  0
LINE
  8
0
 62
  5
 10
      -17.000057
 20
      -27.700485
 30
        0.000000
 11
      -14.500057
 21
      -28.354984
 31
        0.000000
  0
LINE
  8
0
 62
  5
 10
       14.499943
 20
      -28.354984
 30
        0.000000
 11
       16.999943
 21
      -27.700485
 31
        0.000000
  0
LINE
  8
0
 62
  5
 10
       16.999943
 20
      -27.700485
 30
        0.000000
 11
       14.499943
 21
      -27.045986
 31
        0.000000
  0
LINE
  8
0
 62
  5
 10
      -17.000057
 20
      -27.700485
 30
        0.000000
 11
       16.999943
 21
      -27.700485
 31
        0.000000
  0
ENDBLK
  0
ENDSEC
  0
SECTION
  2
ENTITIES
  0
CIRCLE
  8
0
 10
       -0.000058
 20
        0.000000
 30
        0.000000
 40
       17.000000
  0
LINE
  8
1
 10
       50.049445
 20
      -15.250000
 30
        0.000000
 11
       50.049445
 21
       15.250000
 31
        0.000000
  0
LINE
  8
1
 10
       60.649445
 20
       15.650000
 30
        0.000000
 11
       60.649445
 21
      -15.650000
 31
        0.000000
  0
CIRCLE
  8
1
 10
       -0.000058
 20
       -0.000058
 30
        0.000000
 40
       10.850058
  0
CIRCLE
  8
1
 10
       -0.000058
 20
       -0.000058
 30
        0.000000
 40
       12.500058
  0
CIRCLE
  8
1
 10
       -0.000058
 20
       -0.000058
 30
        0.000000
 40
       13.200058
  0
CIRCLE
  8
1
 10
       -0.000058
 20
       -0.000058
 30
        0.000000
 40
       14.250058
  0
CIRCLE
  8
1
 10
       -0.000058
 20
       -0.000058
 30
        0.000000
 40
       15.000058
  0
CIRCLE
  8
1
 10
       -0.000058
 20
       -0.000058
 30
        0.000000
 40
       13.500058
  0
LINE
  8
1
 10
       60.649445
 20
       16.000000
 30
        0.000000
 11
       60.649445
 21
       15.750000
 31
        0.000000
  0
LINE
  8
1
 10
       59.649445
 20
       17.000000
 30
        0.000000
 11
       60.649445
 21
       16.000000
 31
        0.000000
  0
LINE
  8
1
 10
       51.059808
 20
       17.000000
 30
        0.000000
 11
       59.649445
 21
       17.000000
 31
        0.000000
  0
LINE
  8
1
 10
       50.049445
 20
       15.250000
 30
        0.000000
 11
       51.059808
 21
       17.000000
 31
        0.000000
  0
LINE
  8
1
 10
       47.649445
 20
       15.250000
 30
        0.000000
 11
       50.049445
 21
       15.250000
 31
        0.000000
  0
LINE
  8
1
 10
       46.649445
 20
       14.250000
 30
        0.000000
 11
       47.649445
 21
       15.250000
 31
        0.000000
  0
LINE
  8
1
 10
       40.949445
 20
       14.250000
 30
        0.000000
 11
       46.649445
 21
       14.250000
 31
        0.000000
  0
LINE
  8
1
 10
       40.649445
 20
       13.950000
 30
        0.000000
 11
       40.949445
 21
       14.250000
 31
        0.000000
  0
LINE
  8
1
 10
       40.649445
 20
        0.000000
 30
        0.000000
 11
       40.649445
 21
       13.500000
 31
        0.000000
  0
LINE
  8
1
 10
       40.649445
 20
       13.500000
 30
        0.000000
 11
       40.649445
 21
       13.950000
 31
        0.000000
  0
LINE
  8
1
 10
       40.949445
 20
       13.200000
 30
        0.000000
 11
       40.949445
 21
        0.000000
 31
        0.000000
  0
LINE
  8
1
 10
       64.949445
 20
       20.000000
 30
        0.000000
 11
       68.349445
 21
       20.000000
 31
        0.000000
  0
LINE
  8
1
 10
       53.349445
 20
       17.300000
 30
        0.000000
 11
       53.149445
 21
       17.500000
 31
        0.000000
  0
LINE
  8
1
 10
       55.149445
 20
       17.500000
 30
        0.000000
 11
       54.949445
 21
       17.300000
 31
        0.000000
  0
LINE
  8
1
 10
       52.249445
 20
       17.800000
 30
        0.000000
 11
       52.249445
 21
       19.700000
 31
        0.000000
  0
LINE
  8
1
 10
       52.449445
 20
       17.800000
 30
        0.000000
 11
       52.449445
 21
       19.700000
 31
        0.000000
  0
LINE
  8
1
 10
       52.749445
 20
       17.800000
 30
        0.000000
 11
       52.749445
 21
       19.700000
 31
        0.000000
  0
LINE
  8
1
 10
       53.149445
 20
       17.800000
 30
        0.000000
 11
       53.149445
 21
       19.700000
 31
        0.000000
  0
LINE
  8
1
 10
       53.649445
 20
       17.800000
 30
        0.000000
 11
       53.649445
 21
       19.700000
 31
        0.000000
  0
LINE
  8
1
 10
       54.649445
 20
       19.700000
 30
        0.000000
 11
       54.649445
 21
       17.800000
 31
        0.000000
  0
LINE
  8
1
 10
       55.149445
 20
       19.700000
 30
        0.000000
 11
       55.149445
 21
       17.800000
 31
        0.000000
  0
LINE
  8
1
 10
       55.549445
 20
       19.700000
 30
        0.000000
 11
       55.549445
 21
       17.800000
 31
        0.000000
  0
LINE
  8
1
 10
       55.849445
 20
       19.700000
 30
        0.000000
 11
       55.849445
 21
       17.800000
 31
        0.000000
  0
LINE
  8
1
 10
       56.049445
 20
       19.700000
 30
        0.000000
 11
       56.049445
 21
       17.800000
 31
        0.000000
  0
LINE
  8
1
 10
       52.149445
 20
       17.800000
 30
        0.000000
 11
       56.149445
 21
       17.800000
 31
        0.000000
  0
LINE
  8
1
 10
       52.149445
 20
       19.700000
 30
        0.000000
 11
       56.149445
 21
       19.700000
 31
        0.000000
  0
LINE
  8
1
 10
       55.849445
 20
       17.500000
 30
        0.000000
 11
       56.149445
 21
       17.800000
 31
        0.000000
  0
LINE
  8
1
 10
       52.449445
 20
       17.500000
 30
        0.000000
 11
       52.149445
 21
       17.800000
 31
        0.000000
  0
LINE
  8
1
 10
       52.149445
 20
       19.700000
 30
        0.000000
 11
       52.449445
 21
       20.000000
 31
        0.000000
  0
LINE
  8
1
 10
       56.149445
 20
       19.700000
 30
        0.000000
 11
       55.849445
 21
       20.000000
 31
        0.000000
  0
LINE
  8
1
 10
       55.849445
 20
       17.500000
 30
        0.000000
 11
       52.449445
 21
       17.500000
 31
        0.000000
  0
LINE
  8
1
 10
       52.149445
 20
       19.700000
 30
        0.000000
 11
       52.149445
 21
       17.800000
 31
        0.000000
  0
LINE
  8
1
 10
       56.149445
 20
       19.700000
 30
        0.000000
 11
       56.149445
 21
       17.800000
 31
        0.000000
  0
LINE
  8
1
 10
       52.449445
 20
       20.000000
 30
        0.000000
 11
       55.849445
 21
       20.000000
 31
        0.000000
  0
LINE
  8
1
 10
       67.649445
 20
       17.500000
 30
        0.000000
 11
       67.649445
 21
       17.300000
 31
        0.000000
  0
LINE
  8
1
 10
       67.449445
 20
       17.300000
 30
        0.000000
 11
       67.449445
 21
       16.500000
 31
        0.000000
  0
LINE
  8
1
 10
       65.849445
 20
       17.300000
 30
        0.000000
 11
       65.849445
 21
       16.500000
 31
        0.000000
  0
LINE
  8
1
 10
       65.649445
 20
       17.500000
 30
        0.000000
 11
       65.649445
 21
       17.300000
 31
        0.000000
  0
LINE
  8
1
 10
       54.951445
 20
       17.300000
 30
        0.000000
 11
       54.951445
 21
       17.000000
 31
        0.000000
  0
LINE
  8
1
 10
       53.349445
 20
       17.300000
 30
        0.000000
 11
       53.349445
 21
       17.000000
 31
        0.000000
  0
LINE
  8
1
 10
       53.149445
 20
       17.300000
 30
        0.000000
 11
       55.149445
 21
       17.300000
 31
        0.000000
  0
LINE
  8
1
 10
       55.149445
 20
       17.300000
 30
        0.000000
 11
       55.149445
 21
       17.500000
 31
        0.000000
  0
LINE
  8
1
 10
       53.149445
 20
       17.300000
 30
        0.000000
 11
       53.149445
 21
       17.500000
 31
        0.000000
  0
LINE
  8
1
 10
       65.649445
 20
       17.300000
 30
        0.000000
 11
       67.649445
 21
       17.300000
 31
        0.000000
  0
LINE
  8
1
 10
       67.649445
 20
       17.300000
 30
        0.000000
 11
       67.649445
 21
       16.500000
 31
        0.000000
  0
LINE
  8
1
 10
       65.649445
 20
       17.300000
 30
        0.000000
 11
       65.649445
 21
       16.500000
 31
        0.000000
  0
LINE
  8
1
 10
       55.149445
 20
       17.000000
 30
        0.000000
 11
       55.149445
 21
       17.300000
 31
        0.000000
  0
LINE
  8
1
 10
       53.149445
 20
       17.000000
 30
        0.000000
 11
       53.149445
 21
       17.300000
 31
        0.000000
  0
LINE
  8
1
 10
       66.649445
 20
       19.700000
 30
        0.000000
 11
       66.649445
 21
       17.800000
 31
        0.000000
  0
LINE
  8
1
 10
       54.149445
 20
       19.700000
 30
        0.000000
 11
       54.149445
 21
       17.800000
 31
        0.000000
  0
LINE
  8
1
 10
       65.849445
 20
       17.300000
 30
        0.000000
 11
       65.649445
 21
       17.500000
 31
        0.000000
  0
LINE
  8
1
 10
       67.649445
 20
       17.500000
 30
        0.000000
 11
       67.449445
 21
       17.300000
 31
        0.000000
  0
LINE
  8
1
 10
       64.749445
 20
       17.800000
 30
        0.000000
 11
       64.749445
 21
       19.700000
 31
        0.000000
  0
LINE
  8
1
 10
       64.949445
 20
       17.800000
 30
        0.000000
 11
       64.949445
 21
       19.700000
 31
        0.000000
  0
LINE
  8
1
 10
       65.249445
 20
       17.800000
 30
        0.000000
 11
       65.249445
 21
       19.700000
 31
        0.000000
  0
LINE
  8
1
 10
       65.649445
 20
       17.800000
 30
        0.000000
 11
       65.649445
 21
       19.700000
 31
        0.000000
  0
LINE
  8
1
 10
       66.149445
 20
       17.800000
 30
        0.000000
 11
       66.149445
 21
       19.700000
 31
        0.000000
  0
LINE
  8
1
 10
       67.149445
 20
       19.700000
 30
        0.000000
 11
       67.149445
 21
       17.800000
 31
        0.000000
  0
LINE
  8
1
 10
       67.649445
 20
       19.700000
 30
        0.000000
 11
       67.649445
 21
       17.800000
 31
        0.000000
  0
LINE
  8
1
 10
       68.049445
 20
       19.700000
 30
        0.000000
 11
       68.049445
 21
       17.800000
 31
        0.000000
  0
LINE
  8
1
 10
       68.349445
 20
       19.700000
 30
        0.000000
 11
       68.349445
 21
       17.800000
 31
        0.000000
  0
LINE
  8
1
 10
       68.549445
 20
       19.700000
 30
        0.000000
 11
       68.549445
 21
       17.800000
 31
        0.000000
  0
LINE
  8
1
 10
       64.649445
 20
       17.800000
 30
        0.000000
 11
       68.649445
 21
       17.800000
 31
        0.000000
  0
LINE
  8
1
 10
       64.649445
 20
       19.700000
 30
        0.000000
 11
       68.649445
 21
       19.700000
 31
        0.000000
  0
LINE
  8
1
 10
       68.349445
 20
       17.500000
 30
        0.000000
 11
       68.649445
 21
       17.800000
 31
        0.000000
  0
LINE
  8
1
 10
       64.949445
 20
       17.500000
 30
        0.000000
 11
       64.649445
 21
       17.800000
 31
        0.000000
  0
LINE
  8
1
 10
       64.649445
 20
       19.700000
 30
        0.000000
 11
       64.949445
 21
       20.000000
 31
        0.000000
  0
LINE
  8
1
 10
       68.649445
 20
       19.700000
 30
        0.000000
 11
       68.349445
 21
       20.000000
 31
        0.000000
  0
LINE
  8
1
 10
       68.349445
 20
       17.500000
 30
        0.000000
 11
       64.949445
 21
       17.500000
 31
        0.000000
  0
LINE
  8
1
 10
       64.649445
 20
       19.700000
 30
        0.000000
 11
       64.649445
 21
       17.800000
 31
        0.000000
  0
LINE
  8
1
 10
       68.649445
 20
       19.700000
 30
        0.000000
 11
       68.649445
 21
       17.800000
 31
        0.000000
  0
LINE
  8
1
 10
       96.649445
 20
       12.200000
 30
        0.000000
 11
       99.149445
 21
       12.200000
 31
        0.000000
  0
LINE
  8
1
 10
       99.149445
 20
      -12.200000
 30
        0.000000
 11
       96.649445
 21
      -12.200000
 31
        0.000000
  0
LINE
  8
1
 10
       40.949445
 20
        0.000000
 30
        0.000000
 11
       40.949445
 21
      -14.250000
 31
        0.000000
  0
LINE
  8
1
 10
       46.649445
 20
        0.000000
 30
        0.000000
 11
       46.649445
 21
      -14.250000
 31
        0.000000
  0
LINE
  8
1
 10
       47.649445
 20
        0.000000
 30
        0.000000
 11
       47.649445
 21
      -15.250000
 31
        0.000000
  0
LINE
  8
1
 10
       51.059808
 20
        0.000000
 30
        0.000000
 11
       51.059808
 21
      -17.000000
 31
        0.000000
  0
LINE
  8
1
 10
       59.649445
 20
        0.000000
 30
        0.000000
 11
       59.649445
 21
      -17.000000
 31
        0.000000
  0
LINE
  8
1
 10
       60.649445
 20
      -15.650000
 30
        0.000000
 11
       60.649445
 21
      -15.750000
 31
        0.000000
  0
LINE
  8
1
 10
       61.649445
 20
        0.000000
 30
        0.000000
 11
       61.649445
 21
      -15.650000
 31
        0.000000
  0
LINE
  8
1
 10
       62.499445
 20
        0.000000
 30
        0.000000
 11
       62.499445
 21
      -16.500000
 31
        0.000000
  0
LINE
  8
1
 10
       72.299445
 20
        0.000000
 30
        0.000000
 11
       72.299445
 21
      -16.500000
 31
        0.000000
  0
LINE
  8
1
 10
       73.149445
 20
        0.000000
 30
        0.000000
 11
       73.149445
 21
      -15.650000
 31
        0.000000
  0
LINE
  8
1
 10
       74.149445
 20
        0.000000
 30
        0.000000
 11
       74.149445
 21
      -15.650000
 31
        0.000000
  0
LINE
  8
1
 10
       74.649445
 20
        0.000000
 30
        0.000000
 11
       74.649445
 21
      -16.500000
 31
        0.000000
  0
LINE
  8
1
 10
       91.572094
 20
        0.000000
 30
        0.000000
 11
       91.572094
 21
       -0.500000
 31
        0.000000
  0
LINE
  8
1
 10
       91.572094
 20
       -0.500000
 30
        0.000000
 11
       91.572094
 21
      -16.500000
 31
        0.000000
  0
LINE
  8
1
 10
       92.149445
 20
        0.000000
 30
        0.000000
 11
       92.149445
 21
      -15.500000
 31
        0.000000
  0
LINE
  8
1
 10
       95.149445
 20
        0.000000
 30
        0.000000
 11
       95.149445
 21
      -15.500000
 31
        0.000000
  0
LINE
  8
1
 10
       98.649445
 20
        0.000000
 30
        0.000000
 11
       98.649445
 21
      -12.700000
 31
        0.000000
  0
LINE
  8
1
 10
       95.649445
 20
        0.000000
 30
        0.000000
 11
       95.649445
 21
      -12.200000
 31
        0.000000
  0
LINE
  8
1
 10
       96.649445
 20
        0.000000
 30
        0.000000
 11
       96.649445
 21
      -12.200000
 31
        0.000000
  0
LINE
  8
1
 10
       99.149445
 20
        0.000000
 30
        0.000000
 11
       99.149445
 21
      -12.200000
 31
        0.000000
  0
LINE
  8
0
  6
CENTER
 10
        0.000000
 20
       21.845418
 30
        0.000000
 11
        0.000000
 21
      -19.842150
 31
        0.000000
  0
LINE
  8
1
 10
       99.149445
 20
      -12.200000
 30
        0.000000
 11
       98.649445
 21
      -12.700000
 31
        0.000000
  0
LINE
  8
1
 10
       98.649445
 20
      -12.700000
 30
        0.000000
 11
       96.649445
 21
      -12.700000
 31
        0.000000
  0
LINE
  8
1
 10
       96.649445
 20
      -12.700000
 30
        0.000000
 11
       96.649445
 21
      -12.200000
 31
        0.000000
  0
LINE
  8
1
 10
       96.649445
 20
      -12.200000
 30
        0.000000
 11
       95.649445
 21
      -12.200000
 31
        0.000000
  0
LINE
  8
1
 10
       95.649445
 20
      -12.200000
 30
        0.000000
 11
       95.649445
 21
      -15.000000
 31
        0.000000
  0
LINE
  8
1
  6
CENTER
 10
      -20.109991
 20
        0.000000
 30
        0.000000
 11
       19.809873
 21
        0.000000
 31
        0.000000
  0
LINE
  8
1
  6
CENTER
 10
       32.771978
 20
        0.000000
 30
        0.000000
 11
      102.221782
 21
        0.000000
 31
        0.000000
  0
TEXT
  8
0
 62
  2
 10
      -11.488676
 20
       31.572997
 30
        0.000000
 40
        3.000000
  1
ＩＶ－１Ｂ２０５０
 50
        0.000000
 41
        1.000000
 51
        0.000000
  7
BIGFONT
  0
LINE
  8
1
 10
       -0.800058
 20
       17.300000
 30
        0.000000
 11
       -1.000058
 21
       17.500000
 31
        0.000000
  0
LINE
  8
1
 10
        0.999942
 20
       17.500000
 30
        0.000000
 11
        0.799942
 21
       17.300000
 31
        0.000000
  0
LINE
  8
1
 10
       -1.900058
 20
       17.800000
 30
        0.000000
 11
       -1.900058
 21
       19.700000
 31
        0.000000
  0
LINE
  8
1
 10
       -1.700058
 20
       17.800000
 30
        0.000000
 11
       -1.700058
 21
       19.700000
 31
        0.000000
  0
LINE
  8
1
 10
       -1.400058
 20
       17.800000
 30
        0.000000
 11
       -1.400058
 21
       19.700000
 31
        0.000000
  0
LINE
  8
1
 10
       -1.000058
 20
       17.800000
 30
        0.000000
 11
       -1.000058
 21
       19.700000
 31
        0.000000
  0
LINE
  8
1
 10
       -0.500058
 20
       17.800000
 30
        0.000000
 11
       -0.500058
 21
       19.700000
 31
        0.000000
  0
LINE
  8
1
 10
        0.499942
 20
       19.700000
 30
        0.000000
 11
        0.499942
 21
       17.800000
 31
        0.000000
  0
LINE
  8
1
 10
        0.999942
 20
       19.700000
 30
        0.000000
 11
        0.999942
 21
       17.800000
 31
        0.000000
  0
LINE
  8
1
 10
        1.399942
 20
       19.700000
 30
        0.000000
 11
        1.399942
 21
       17.800000
 31
        0.000000
  0
LINE
  8
1
 10
        1.699942
 20
       19.700000
 30
        0.000000
 11
        1.699942
 21
       17.800000
 31
        0.000000
  0
LINE
  8
1
 10
        1.899942
 20
       19.700000
 30
        0.000000
 11
        1.899942
 21
       17.800000
 31
        0.000000
  0
LINE
  8
1
 10
       -2.000058
 20
       17.800000
 30
        0.000000
 11
        1.999942
 21
       17.800000
 31
        0.000000
  0
LINE
  8
1
 10
       -2.000058
 20
       19.700000
 30
        0.000000
 11
        1.999942
 21
       19.700000
 31
        0.000000
  0
LINE
  8
1
 10
        1.699942
 20
       17.500000
 30
        0.000000
 11
        1.999942
 21
       17.800000
 31
        0.000000
  0
LINE
  8
1
 10
       -1.700058
 20
       17.500000
 30
        0.000000
 11
       -2.000058
 21
       17.800000
 31
        0.000000
  0
LINE
  8
1
 10
       -2.000058
 20
       19.700000
 30
        0.000000
 11
       -1.700058
 21
       20.000000
 31
        0.000000
  0
LINE
  8
1
 10
        1.999942
 20
       19.700000
 30
        0.000000
 11
        1.699942
 21
       20.000000
 31
        0.000000
  0
LINE
  8
1
 10
        1.699942
 20
       17.500000
 30
        0.000000
 11
       -1.700058
 21
       17.500000
 31
        0.000000
  0
LINE
  8
1
 10
       -2.000058
 20
       19.700000
 30
        0.000000
 11
       -2.000058
 21
       17.800000
 31
        0.000000
  0
LINE
  8
1
 10
        1.999942
 20
       19.700000
 30
        0.000000
 11
        1.999942
 21
       17.800000
 31
        0.000000
  0
LINE
  8
1
 10
       -1.700058
 20
       20.000000
 30
        0.000000
 11
        1.699942
 21
       20.000000
 31
        0.000000
  0
LINE
  8
1
 10
        0.801942
 20
       17.300000
 30
        0.000000
 11
        0.801942
 21
       16.981072
 31
        0.000000
  0
LINE
  8
1
 10
       -0.800058
 20
       17.300000
 30
        0.000000
 11
       -0.800058
 21
       16.981072
 31
        0.000000
  0
LINE
  8
1
 10
       -1.000058
 20
       17.300000
 30
        0.000000
 11
        0.999942
 21
       17.300000
 31
        0.000000
  0
LINE
  8
1
 10
        0.999942
 20
       17.300000
 30
        0.000000
 11
        0.999942
 21
       17.500000
 31
        0.000000
  0
LINE
  8
1
 10
       -1.000058
 20
       17.300000
 30
        0.000000
 11
       -1.000058
 21
       17.500000
 31
        0.000000
  0
LINE
  8
1
 10
        0.999942
 20
       16.970563
 30
        0.000000
 11
        0.999942
 21
       17.300000
 31
        0.000000
  0
LINE
  8
1
 10
       -1.000058
 20
       16.970563
 30
        0.000000
 11
       -1.000058
 21
       17.300000
 31
        0.000000
  0
LINE
  8
1
 10
       -0.000058
 20
       19.700000
 30
        0.000000
 11
       -0.000058
 21
       17.800000
 31
        0.000000
  0
LINE
  8
1
 10
       95.649445
 20
      -15.000000
 30
        0.000000
 11
       95.149445
 21
      -15.500000
 31
        0.000000
  0
LINE
  8
1
 10
       95.149445
 20
      -15.500000
 30
        0.000000
 11
       92.149445
 21
      -15.500000
 31
        0.000000
  0
LINE
  8
1
 10
       92.149445
 20
      -15.500000
 30
        0.000000
 11
       91.572094
 21
      -16.500000
 31
        0.000000
  0
LINE
  8
1
 10
       91.572094
 20
      -16.500000
 30
        0.000000
 11
       74.649445
 21
      -16.500000
 31
        0.000000
  0
LINE
  8
1
 10
       74.649445
 20
      -16.500000
 30
        0.000000
 11
       74.149445
 21
      -16.000000
 31
        0.000000
  0
LINE
  8
1
 10
       74.149445
 20
      -16.000000
 30
        0.000000
 11
       74.149445
 21
      -15.650000
 31
        0.000000
  0
LINE
  8
1
 10
       74.149445
 20
      -15.650000
 30
        0.000000
 11
       73.149445
 21
      -15.650000
 31
        0.000000
  0
LINE
  8
1
 10
       73.149445
 20
      -15.650000
 30
        0.000000
 11
       72.299445
 21
      -16.500000
 31
        0.000000
  0
LINE
  8
1
 10
       72.299445
 20
      -16.500000
 30
        0.000000
 11
       62.499445
 21
      -16.500000
 31
        0.000000
  0
LINE
  8
1
 10
       62.499445
 20
      -16.500000
 30
        0.000000
 11
       61.649445
 21
      -15.650000
 31
        0.000000
  0
LINE
  8
1
 10
       61.649445
 20
      -15.650000
 30
        0.000000
 11
       60.649445
 21
      -15.650000
 31
        0.000000
  0
LINE
  8
1
 10
       60.649445
 20
      -15.750000
 30
        0.000000
 11
       60.649445
 21
      -16.000000
 31
        0.000000
  0
LINE
  8
1
 10
       60.649445
 20
      -16.000000
 30
        0.000000
 11
       59.649445
 21
      -17.000000
 31
        0.000000
  0
LINE
  8
1
 10
       59.649445
 20
      -17.000000
 30
        0.000000
 11
       51.059808
 21
      -17.000000
 31
        0.000000
  0
LINE
  8
1
 10
       51.059808
 20
      -17.000000
 30
        0.000000
 11
       50.049445
 21
      -15.250000
 31
        0.000000
  0
LINE
  8
1
 10
       50.049445
 20
      -15.250000
 30
        0.000000
 11
       47.649445
 21
      -15.250000
 31
        0.000000
  0
LINE
  8
1
 10
       47.649445
 20
      -15.250000
 30
        0.000000
 11
       46.649445
 21
      -14.250000
 31
        0.000000
  0
LINE
  8
1
 10
       46.649445
 20
      -14.250000
 30
        0.000000
 11
       40.949445
 21
      -14.250000
 31
        0.000000
  0
LINE
  8
1
 10
       40.949445
 20
      -14.250000
 30
        0.000000
 11
       40.649445
 21
      -13.950000
 31
        0.000000
  0
LINE
  8
1
 10
       40.649445
 20
      -13.950000
 30
        0.000000
 11
       40.649445
 21
        0.000000
 31
        0.000000
  0
LINE
  8
1
 10
       40.949445
 20
       14.250000
 30
        0.000000
 11
       40.949445
 21
       13.200000
 31
        0.000000
  0
LINE
  8
1
 10
       46.649445
 20
       14.250000
 30
        0.000000
 11
       46.649445
 21
        0.000000
 31
        0.000000
  0
LINE
  8
1
 10
       47.649445
 20
       15.250000
 30
        0.000000
 11
       47.649445
 21
        0.000000
 31
        0.000000
  0
LINE
  8
1
 10
       51.059808
 20
       17.000000
 30
        0.000000
 11
       51.059808
 21
        0.000000
 31
        0.000000
  0
LINE
  8
1
 10
       59.649445
 20
       17.000000
 30
        0.000000
 11
       59.649445
 21
        0.000000
 31
        0.000000
  0
LINE
  8
1
 10
       60.649445
 20
       15.750000
 30
        0.000000
 11
       60.649445
 21
       15.650000
 31
        0.000000
  0
LINE
  8
1
 10
       61.649445
 20
       15.650000
 30
        0.000000
 11
       61.649445
 21
        0.000000
 31
        0.000000
  0
LINE
  8
1
 10
       62.499445
 20
       16.500000
 30
        0.000000
 11
       62.499445
 21
        0.000000
 31
        0.000000
  0
LINE
  8
1
 10
       72.299445
 20
       16.500000
 30
        0.000000
 11
       72.299445
 21
        0.000000
 31
        0.000000
  0
LINE
  8
1
 10
       73.149445
 20
       15.650000
 30
        0.000000
 11
       73.149445
 21
        0.000000
 31
        0.000000
  0
LINE
  8
1
 10
       74.149445
 20
       15.650000
 30
        0.000000
 11
       74.149445
 21
        0.000000
 31
        0.000000
  0
LINE
  8
1
 10
       74.649445
 20
       16.500000
 30
        0.000000
 11
       74.649445
 21
        0.000000
 31
        0.000000
  0
LINE
  8
1
 10
       91.572094
 20
        0.500000
 30
        0.000000
 11
       91.572094
 21
        0.000000
 31
        0.000000
  0
LINE
  8
1
 10
       91.572094
 20
       16.500000
 30
        0.000000
 11
       91.572094
 21
        0.500000
 31
        0.000000
  0
LINE
  8
1
 10
       92.149445
 20
       15.500000
 30
        0.000000
 11
       92.149445
 21
        0.000000
 31
        0.000000
  0
LINE
  8
1
 10
       95.149445
 20
       15.500000
 30
        0.000000
 11
       95.149445
 21
        0.000000
 31
        0.000000
  0
LINE
  8
1
 10
       98.649445
 20
       12.700000
 30
        0.000000
 11
       98.649445
 21
        0.000000
 31
        0.000000
  0
LINE
  8
1
 10
       95.649445
 20
       12.200000
 30
        0.000000
 11
       95.649445
 21
        0.000000
 31
        0.000000
  0
LINE
  8
1
 10
       96.649445
 20
       12.200000
 30
        0.000000
 11
       96.649445
 21
        0.000000
 31
        0.000000
  0
LINE
  8
1
 10
       99.149445
 20
       12.200000
 30
        0.000000
 11
       99.149445
 21
        0.000000
 31
        0.000000
  0
LINE
  8
1
 10
       98.649445
 20
       12.700000
 30
        0.000000
 11
       99.149445
 21
       12.200000
 31
        0.000000
  0
LINE
  8
1
 10
       96.649445
 20
       12.700000
 30
        0.000000
 11
       98.649445
 21
       12.700000
 31
        0.000000
  0
LINE
  8
1
 10
       96.649445
 20
       12.200000
 30
        0.000000
 11
       96.649445
 21
       12.700000
 31
        0.000000
  0
LINE
  8
1
 10
       95.649445
 20
       12.200000
 30
        0.000000
 11
       96.649445
 21
       12.200000
 31
        0.000000
  0
LINE
  8
1
 10
       95.649445
 20
       15.000000
 30
        0.000000
 11
       95.649445
 21
       12.200000
 31
        0.000000
  0
LINE
  8
1
 10
       95.149445
 20
       15.500000
 30
        0.000000
 11
       95.649445
 21
       15.000000
 31
        0.000000
  0
LINE
  8
1
 10
       92.149445
 20
       15.500000
 30
        0.000000
 11
       95.149445
 21
       15.500000
 31
        0.000000
  0
LINE
  8
1
 10
       91.572094
 20
       16.500000
 30
        0.000000
 11
       92.149445
 21
       15.500000
 31
        0.000000
  0
LINE
  8
1
 10
       74.649445
 20
       16.500000
 30
        0.000000
 11
       91.572094
 21
       16.500000
 31
        0.000000
  0
LINE
  8
1
 10
       74.149445
 20
       16.000000
 30
        0.000000
 11
       74.649445
 21
       16.500000
 31
        0.000000
  0
LINE
  8
1
 10
       74.149445
 20
       15.650000
 30
        0.000000
 11
       74.149445
 21
       16.000000
 31
        0.000000
  0
LINE
  8
1
 10
       73.149445
 20
       15.650000
 30
        0.000000
 11
       74.149445
 21
       15.650000
 31
        0.000000
  0
LINE
  8
1
 10
       72.299445
 20
       16.500000
 30
        0.000000
 11
       73.149445
 21
       15.650000
 31
        0.000000
  0
LINE
  8
1
 10
       62.499445
 20
       16.500000
 30
        0.000000
 11
       72.299445
 21
       16.500000
 31
        0.000000
  0
LINE
  8
1
 10
       61.649445
 20
       15.650000
 30
        0.000000
 11
       62.499445
 21
       16.500000
 31
        0.000000
  0
LINE
  8
1
 10
       60.649445
 20
       15.650000
 30
        0.000000
 11
       61.649445
 21
       15.650000
 31
        0.000000
  0
DIMENSION
  8
0
  2
BLK0001
 10
       40.649445
 20
      -27.700485
 11
       65.649445
 21
      -27.200485
 13
       40.649445
 23
      -13.950000
 14
       95.649445
 24
      -15.000000
 50
        0.0
 70
  0
  0
DIMENSION
  8
0
  2
BLK0002
 10
      -17.000057
 20
      -27.700485
 11
       -3.750058
 21
      -27.200485
 13
      -17.000057
 23
        0.000000
 14
       16.999943
 24
        0.000000
 50
        0.0
 70
  0
  0
ENDSEC
  0
EOF
